&title=Antler
&artist=Juggernaut.
&first=-0.03
&des=514
&des_5=514
&lv_5=14
&inote_5=(90){4},,,,,,
,,{2}B4,
B6,
B2/B3,B7/B8/B1,
3xpp2[2:1],E1,
7xpp6[2:1],{4}E5,C,
{8}5b/4b-6[16:1],3,2,{16}1,1,{8}8-5-3[8:1],{24}2,6,4,{8}8,1h[8:1],
{16}2,3,4,5,{8}6h[8:1],{16}5,{48}5,6,5,{8}6<3[8:1],6/3>6[8:1],4,5,
3,4/2,5/1,{16}7,6,{8}5-8-2[8:1],{24}3,7,1,{8}5,4h[8:1],
8,{16}3,2,1s5[4:1],8,,6,{4}C,{48}8,1h[48:11],,,,,,,,,,,{16}4,
3,5,4-2[16:1],,,,,5,6,4,5-7[16:1],,,,,4,
3,5,4,,,{8}4,{4}5h[4:1],3h[4:1],
{16}4,3,2,4-2[16:1],5,6,,,5,6,7,5,4,3,,3,
{8}2/4-6[12:1],{16}1,1,,2,,3/7,,4/6,,2,5,6,{8}7,
{16}3/4-8[8:1],2,{8}1,{16}2,2,3,3,6/5-1[8:1],7,{8}8,{16}5/4-8[8:1],3,{8}2,
{16}2,2,3,3,6,4,5,3,{8}2/4-8[8:1],1,{16}2,2,3,3,
{8}1/2,{32}3,3,{16}4,{8}5/2,{32}6,6,{16}5,7/4,4,{8}4,{16}5/2,3,{32}6,6,{16}5,
7/4,3,2/1,1,{32}8,8,2,2,6,6,4,4,{2}5w1[8:1],
{64}1bx-5[16:1],2,3,4,5,6,7,8,{8}1,1b/3,{16}3,2,{64}8b-4[16:1],7,6,5,4,3,2,1,{8}8,8b/6,7h[8:1],
{64}2b,3,4,5,6,7,8,1,{8}2,{64}7b/3,6,5,4,3,2,1,8,{8}7,{16}6/3,B6/B3,,2/7,{8}B7/B2,8h[8:1],
{64}1b-5[16:1]*-6[16:1],2,3,4,5,6,7,8,{8}1,1b,{16}3,2,{64}8b-4[16:1]*-3[16:1],7,6,5,4,3,2,1,{8}8,8b,6h[8:1],
{64}5b,4,3,2,1,8,7,6,{8}5,{64}4b/3,5,6,7,8,1,2,3,{8}4,{16}6/2,B6/B2,,4/8,{8}B8/B4,2h[8:1],
{64}1b,8,7,6,{16}5,{8}3,4/2,{16}5,6,{64}7/8b,1,2,3,{16}4,6,5,7-3[16:1],3-6[16:1],6-2[16:1],2-7[16:1],
{4}1b,{16}5b,C/B7/B3,,,6/2,B6/B2,,3/7,{8}B7/B3,1h[8:1],
{16}4,5,{32}2,6,3,7,{16}4,4,,8h[16:1],{64}2b,3,4,5,{16}6,{24}7,5,1,{8}3-8[16:1],2/1,
{64}6b/3b-7[16:1],5,4,3,,,,,{16}1,2,{64}3b/6b,5,4,3,,,,,,,,,{16}8/1,{2}6b/3bz7[16:3],
{4}5h[4:1],{48}1x,2,3,6x,7,8,2x,3,4,7xh[16:1],,,{4}3h[4:1],{48}8x,7,6,4x,3,2,7x,6,5,1xh[16:1],,,{4}6h[4:1],
{16}8x-4-8[8:1],{48}7x,6,5,2x,3,4,7x,6,5,{16}1x<2[4:1],D5/D4/A4f,{48}1x,2,3,4,{24}5,{8}A1f,{16}8,8,
{4}Ch[4:1],{16}1x>8[4:1],2x,3x,4x,{4}A1f,{32}1x,2,3,4,5,6,7,8,
{4}1b/Ch[4:1],{48}2x<3[4:1],3x,4x,1x,2x,3x,8x,1x,{12}2x,{16}A2f,{48}E8,B7,E7,B6,E6,B5,E5,B4,E4,{4}1xh[4:1]/B3/E3f,
{8}2b,{16}3,3,{48}1x,8,7,2x,3,4,8x,7,6,3h[16:1],,,{8}4b,{16}6,6,{48}8x,1,2,7x,6,5,1x,2,3,6xh[16:1],,,{16}5b,
5/4,4/3,2,{48}4b,3,2,1>5<1>5[16:3],8,7,6,5,4,8x,{192},,,,,,,,{64}5b,6x,7x,8x,{16}A1f,,,{8}E7f/B7/B6,{16}3,2,
{4}1/Ch[4:1],{16}E3,B3,E4,B4,{8}8,7/5,3/4<8[16:3],1h[8:1],
{4}4x,{48}2x,3,4,1x,2,3,8x,1,2,7xh[16:1],,,5xs1[4:1],4,3,6x,7,8,4x,3,2,,,,,,,Cf,{96},,,,,,,,,,,,,,,,,,,{32}E5,
E6,E7,E8,E1,,2x,3x,4x,5x,E2,E3,E4,E5,E6,,,{16}8x,{32}8x,,,E7,E8,E1,E2,E3,{16}4x,4x,
{32}2bx,E4,E5,E6,E7,E8,,1x,2x,3x,4x,5x,1bx,E3,E4,E5,6bx,E8,E1,E2,E3,E4,,,1x,8x,2x,1x,{16}7x,8x,
{32},E5,E4,E3,E2,E1,,7x,6x,5x,4x,E8,E7,E6,E5,E4,,,{16}1x,{32}1x,,,E3,E2,E1,E8,E7,{16}5x,5x,
{32}7bx,E6,E5,E4,E3,E2,,8x,7x,6x,5x,4x,8bx,E7,E6,E5,3bx,E2,E1,E8,E7,E6,,,8x,1x,7x,8x,{16}2x,1x,
8<5[4:3],3,,3,{8}2,{16}2,3,{32},,4,3,2,1,,,{16}2,2,3,3,
4>1[4:3],7,,7,{8}6,{16}6,7,{32}8,7,6,5,{16}4,5,6,6,7,7,
{32}8-4[16:3],7,6,5,{16}3,3,6,2,{8}8,{32}1-5[16:3],2,3,4,{16}6,6,3,7,{8}1,
{32}8/7,6,5-8[16:1],4,{16}3,{32}2,1,{16}3,5x,{8}1b,{32}1/2,3,4-1[16:1],5,{16}6,{32}7,8,{16}6,4x,{32}8b,B8,C,B4,
E
