&title=Σ
&artist=DJ Myosuke & Gram & t+pazolite
&first=0.14
&des=Ψ
&des_5=Ψ
&lv_5=15+
&inote_5=(222)
{1},,
{32}1bq7q5b[1:3]*p3p5[1:3],2/8,3/7,4/6,5,,,,,,,,,,,,
{4},,,,,,,,,,,,,4-1[8:1],4h[2:3],,,,8h[4:7],,,5,5<4[2:3],,,,5<8b[2:1],,,,
{4}4/6,4/6,3/5,3/5,2/4,2/4,
{12}2h[4:1]/A4,D5,A5,D6,A6,D7,
{4}1,1,4/6,4/6,5/7,5/7,
{12}7h[4:1]/A5,D5,A4,D4,A3,D3,
{12}8,7,6,5,4,3,7,6,5,4,3,2,7,6,5,3,2,1,6,5,4,2,1,8,
{12}5,6,7,1/8,2,3,4/6,7,8,1/2,3,4,
{12}6,5,7,3,4,2,8,1,7,2,6,3,
{4}5b-3[2:1]*v7-1[2:3],,,,,,,,
{8}A8/E1f/A1/B8/B1,,3,,3h[4:1],,4h[8:1],,5,,6,,7/E5,,8-4[8:1]/B3,,
{8},,2,,2h[4:1],,1h[8:1],,8,,7,,6/D3,,5h[4:1]/B2,,
{8}A8/E1f/A1/B8/B1,,6,,6h[4:1],,5h[8:1],,4,,3,,2/E5,,1-5[8:1]/B6,,
{8},,7,,6h[4:1],,5pp4V28[4:3],,4/5>1b[8:3],,,,,,,,
{4}4V28>1-5[4:5]/A8/E1f/A1/B8/B1,4,5,5,6,6,7,7,8V64<5-1[4:5],8,1,1,2,2,3,3,
{8}4,4,4/5,4,7,7,7/5,7,2,2,2/1,2,6,6,6/8,6,
{16}8,1,2,3,5,6,7,8,1/2,3,4,5,8,7,6,5,4-7[8:1]/8-3[8:1],,,,,,,,2-5[8:1]/6-1[8:1],,,,2b/6b,,,,
{8}8b-4[8:1],,8/2-5[8:1],,2/6>3[8:1],,1-5[8:1]/6,,1/7-4[8:1],,7/3-8[8:1],,3/5-1[8:1],,5/2,2,
{8}2/8-4[8:1],,3-8[8:1]/8,,3/6,,
{16}1-5[8:1],7,1,7,
{8}1-6[8:1],,1>4[8:1]/3,,1/7-3[8:1],,7,,
{8}1b-5[8:1],,1/7-4[8:1],,7/3<6[8:1],,8-4[8:1]/3,,8/2-5[8:1],,2/6-1[8:1],,6/4-8[8:1],,4/7,7,
{8}7/1-5[8:1],,6-1[8:1]/1,,6/3,,
{16}8-4[8:1],2,8,2,
{4}8-6-2-4-2-6-8b[4:3]/Cf,,,,
{4}1b-3[8:1],1b-7[8:1]/6h[8:1],1b>3[8:1]/4h[8:1],1b<7[8:1]/6h[8:1],1b-3[8:1]/4h[8:1],1b<7[8:1]/6h[8:1],1b-5[8:1]/4h[8:1],
{8}6b/1b,7,
{4}8b-6[8:1],8b-2[8:1]/3h[8:1],8b<6[8:1]/5h[8:1],8b/3h[8:1],
{8}8bq5[8:1]/4b>2[8:1],8/4,4b/8b,,
{16}6h[4:1]/1,2,3,4,5<8[8:1],4,3,2,
{8}1b/5b,,1b-4[8:1]/2b-4[8:1],1/2,1b/2b-6[8:1],,2b/5b-1[8:1],,4b-2[8:1]/5b,4,4b/7b,,
{16}8b,,8,7/1,6b/2b,,6/2h[16:3],,
{8}4,3/5,4/6,5/7,
{16}4,8,3,7,2-4v1[2:1],6-8v5b[16:7],1,5,,,,,,,,,,,,,A7/B7/Cf/B3/A3,,,,
{16}2h[4:1],,,,4-6[8:1],3,4,3,4,,,,8-2[8:1],7,8,7,8,,,4,,,3/5,,2-5[8:1]/6-4[8:1],,1/7,,2/6,,,,
{16}7h[4:1],,,,5-3[8:1],6,5,6,5,,,,1-7[8:1],2,1,2,1,,,5,,,6/4,,7-4[8:1]/3-5[8:1],,8/2,,7/3,,,,
{16}2b,6,2,6,2,6,2,6,2,6,2,6,2h[8:1],
{16},7b,3,7,3,7,3,7,3,7,3,8bh[8:1],,,1h[8:1]/7b,,,2b/6h[16:1],,
{16}3b,7,3,7,3,7,3,7,3,7,3,7,3,7,3,7,4b,8,4,8,4,8,4,8,4h[16:1],,3h[16:1]/5,,2/6h[16:1],,1h[16:1]/7,,
{24}1b,2,3,4,5,6,7,8,1,2,3,4,5/1h,2,3,4,5,6,7/3h,4,5,6,7,8,1,2,3,4,5,6,7/4h,5,6,7,8,1,
{16}2h[8:1],,,1h[8:1]/3h[8:1],,,4h[16:1]/8h[16:1],,
{32}8b,7,6,5,4,3,2,1,8,7,6,5,8h,7,6,5,4/8,3/7,2/6,1/5,8,7,6,5,4,3,2,1,8,7,6,5,4/8,3/7,2/6,1/5,8,7,6,5,8h,7,6,5,8h,1,2,3,4v1b[8:1]/8v5[8:1],,,,,,,,B7/Cf/B3,,,,,,,,
{4}6V85-2-4[2:3],1,1,2,3,2,1,8<4v6[2:3],8,1,2,3,3,3,2,1-7[8:1],
{4}1/8-4-8[2:3],5,5,3,2,2,1,1,
{16}1,8,2,7,3,6,4,5,2,1,3,8,4,7,5,6,
{24}4b,3,2,1,8,7,6<1[8:1],,,,,,1b-5b[8:1],2,3,4,5,6,B1/Cf/B5,,,,,,
{8}3b-8[8:1]/7b-4[8:1],2/6,3/7,,1-5[8:1]/5,,1/7<4[8:1],8,7-2[8:1]/3-8[8:1],,7-5[8:1]/3-5[8:1],,3>8[8:1]/7,,3/4-8[8:1],5,
{8}2-5[8:1]*-6[8:1],,2-8[8:1],,2/7-4[8:1],,2/7,,1-5[8:1]/2-4[8:1],3/8,1/2,,
{16}7/8-4[8:1],1,2-5[8:1],,8,,2,,
{8}7-3[8:1],,1/7,,8-4[8:1]/2,,8/2>5[8:1],1,2-7[8:1]/6-1[8:1],,2-4[8:1]/6-4[8:1],,6<1[8:1]/2,,6/5-1[8:1],4,
{8}7-4[8:1],,7/8-3[8:1],,8/5>1[16:3],,
{16}8,7,6,5,4-7-2-5-1b[8:5],,,,,,,,,,,,Cf,,,,
{8}2/8,4/6,3h[8:1]/7h[8:1],,6h[8:1]/5-2[8:1],,5/8h[8:1],,6h[8:1]/1-6[8:1],,1-5[8:1]/7h[8:1],,1/3h[8:1],,
{16}2/4,,1,8,
{8}2h[8:1]/7-4[8:1],,3h[8:1]/7,,1-6[8:1]/2h[8:1],,1/4h[8:1],,
{16}3,5,3,5,
{8}3>8[8:1],4,3<6b[8:1],,2,,
{8}7/8,7/8,5/6,5/6,4-6[8:1]/3V51[4:1],2/5,,,
{16}7,7,8,8,5-3[8:1],5,2V48[4:1],2,5,,2,,,,,,
{16}1,5,1,5,1,5,1,5,2,6,2,6,3,7,3,7,4b,8,4b,8,5b,1,4b,8,3bh[32:1],7bh[32:1],2bh[32:1],6bh[32:1],1bh[32:1],5bh[32:1],8bh[32:1],4bh[32:1],Cf,,,,,,,,,,,,,,,,
{4}2b-8v6-4-6v8-2[4:13]/Ch[4:30],,,,,,,,,,,,,,,,3-5v7-1-7v5-3b[4:13],,,,,,,,,,,,,,,,
{8}2-4v1[2:3],,,D6,,,D7,,,D8,,,A7/B7,,A6/B6,,5<7v4b[2:3],,,D1,,,D2,,,D3,,,A2/B2,,A1/B1,,
{8}8V25V31[2:3],,,5,,,6,,,7,,,8,,8,,1V74V68b[2:3],,,4,,,3,,2-5-1[2:1],,,,,,,,
{8}3b,D7h[4:1],3,,3/B6h[4:1],,3,A6h[4:1],3,,3/E6h[4:1],,3,D5,3,,
{8}6b,D3h[4:1],6,,6/B3h[4:1],,6,A3h[4:1],6,,6/E4h[4:1],,6,D5,6,,
{8}2b,D6h[4:1],2,,2/B5h[4:1],,2,A5h[4:1],2,,2/E5h[4:1],,2,D4,2,,
{8}7b,D4h[4:1],7,,7/B4h[4:1],,7,,
{8}2v3-5[4:1]/D8hf[8:1]/A8hf[32:5]/E8hf[16:3]/B8hf[32:7],,,,
{32}6-1[8:1],,,,A4,D4,A3,D3,6,,,,E5h[64:1],B4h[64:1],B3h[64:1],E3h[64:1],
{8}8b-4[2:1],,2,,2,,2,,5-1[2:1],,3,,3,4b-8b[8:1],
{16},,7b,6b,
{8}5b<1[2:1],,2,,3,,4,,5>1[2:1],,8,,7,6b-1b[8:1],,
{16}2b,3b,
{16}4b,,,,7-4[8:1],8,7,8,7b,,,,2-5[8:1],1,2,1,2b,,,,7h[8:1],,5h[8:1],,6,4,6,4,5,3,5,3,
{32}5b,6,7,,2,,1,,2b,3,4,,8,,1,,7b,6,5,,1b,2,3,,8b,7,6,,2b,3,4,,
{8}5V73-1[8:3],,,,1w5b[8:1],,A7/B7/Cf/B3/A3,,
{4}2,2,2/B7h[2:3],2,2/B1h[1:1],2,2/Chf[2:1],2,
{32}3b,4,5,6,7,8,1,2,3,4,5,6,7,8,1,2,3,4,5,6,7,8,1,2,3,4,5,6,7,8,1,2,3b,4,5b,6,7b,8,1b,2,3b,4b,5b,6b,7b,8b,1b,2b,3b/E3f,4b/E4f,5b/E5f,6b/E6f,7b/E7f,8b/E8f,1b/E1f,2b/E2f,
{4}3b/E3f/B8h[64:1]/Ch[64:1]/B4h[64:1],
{24}6b<1[8:1],,,,,,1b/6b,2,3,4,5,6,7b<4[8:1],,,,,,4b/7b,3,2,1,8,7,
{16}6b-1[8:1],,,4,6b,,2,,8b-3[8:1],,,6,8b,,
{24}4,5,6,
{16}7bv4[8:1],,,2,7b,,1,,8b<5[16:1],,,6h[16:3],8b,,
{24}4,3,2,
{16}1b-5[8:1],,,7,1b,,6,,3b>8[16:1]/7b,,,,
{32}7b/A3f,6/A2,5/A1,4/A8,7,6,5,4,
{24}3b>8[8:1],,,,,,8b/3b,7,6,5,4,3,2b>5[8:1],,,,,,5b/2b,6,7,8,1,2,
{16}3b-8[8:1],,,5,3b,,7,,1b-6[8:1],,,3,1b,,
{24}5,4,3,
{16}2bh[8:1],,,1b/7b,,,6,6,5bh[8:1]/7bh[8:1],,,2b/4b,,,1/5,2/6,3b-8V25[2:1]/7b-4V61b[2:1],,,,,,,,,,,,,,,,
{32}4>1[16:1],,,,,,,,8,7,6,5,8,7,6,5,8>3[16:1]/4,,,,,,,,4,5,6,7,4,5,6,7,
{16}4/8<5[8:1],,,2,8v3[8:1],,1,,8/4-6<7[8:1],,,4,2,,1,,
{16}8p4[8:1],,,1,8,,2,,3<6[16:1],,,5h[16:3],3,,
{24}7,8,1,
{16}2/7<4[8:1],,,3,7,,1,,
{16}2,3,4,5,
{24}7,8,1,2,3,4,
{32}5<8[16:1],,,,,,,,1,2,3,4,1,2,3,4,1<6[16:1]/5,,,,,,,,5,4,3,2,5,4,3,2,
{16}5/1>4[8:1],,,7,1v6[8:1],,8,,1/5-3>2[8:1],,,5,7,,8,,
{16}1h[8:1],,,3h[8:1]/4h[8:1],,,4h[16:1]/6h[16:1],,7h[8:1]/8h[8:1],,,5h[8:1]/6h[8:1],,,3h[16:1]/5h[16:1],,
{4}1b-5b[8:1],1b,
{32}2b/Cf,3,4,5,6,7,8,1,2/B5/B4/E5f,,,,,,,,
{16}1/2,,1/2,,1/2,,1/2,,3/4,,3/4,,3/4,,6,5,4/7,,4/7,,4/7,,6,5,2/4,,2/4,,1/8,,
{32}1/8,2,3,4,
{16}5/7,,5/7,,5/7,,5/7,,2/6,,2/6,,2/6,,2/6,3,4/8,,4/8,7,6/1,,6/1,2,3,7,3,7,
{32}1,2,3,4,7,6,5,4,
{16}8,,8/7,,8/7,,8/7,,6/5,,6/5,,6/5,,3,4,5/2,,5/2,,5/2,,4,5,3,6,3,6,
{24}2,7,2,7,2,7,
{16}1h[8:1]/8h[8:1],,,3h[8:1]/4h[8:1],,,2/6h[16:1],2,1h[8:1]/8h[8:1],,,5h[8:1]/6h[8:1],,,3h[16:1]/7,7,
{16}2b/6b,,,,7,7,
{24}3,4,5,
{32}8z4[8:1],8,1,1,7,7,2,2,,,,,,,,,
{16}2b,1,3,4,2h[8:1],,7,8,6,5,7h[8:1],,8,1,2,3,4,7,5,6,5h[8:1],,8,3,1,2,1h[8:1],,
{24}2,3,4,8,7,6,
{16}2,1,2,1,2h[8:1],,7,8,7,8,6,1,5,2h[8:1],4,4,
{16}3,5,3,5,2,6,
{32}1h[64:1],2h[64:1],3h[64:1],4h[64:1],
{32}7,,7,,E5,B4,B3,E3,6,,6,,
{48}1h[96:1],8h[96:1],7h[96:1],6h[96:1],5h[96:1],4h[96:1],
{16}1b,,,,6,4,6,4,8,5,6,2,4,,
{32}1,8,7,6,
{32}4,,4,,1,2,3,4,,7,,7,,2,1,8,A6h[8:1]/D6h[8:1]/A5h[8:1],,,,3,,,,
{32}1,8,1,8,1,,,,
{4}2<5<2b[1:1],,A4h[4:1]/D4h[4:1]/A3h[4:1],,5,6,7w3[8:1],7b/Cf,
{16}1b,5,1,5,1,5,1,5,1,5,1,5,1h[8:1],,6,2,6,2,6,2,6,2,6,2,7h[8:1],,,4h[8:1]/6h[8:1],,,5/3,,
{16}1,4,1,4,1,4,1,4,8,4,8,4,8,4,8,4,7,4,7,4,7,4,7,4,8,,1/2,,3/8,,4/7,,
{16}3b,7,3b,7,3b,7,3b,7,3b,7,3b,7,3b,7,3b,7,2b,6,2b,6,2b,6,2b,6,1bh[8:1],,,2h[8:1]/8bh[8:1],,,3b/7,,
{16}4b,8b,4b,8b,4b,8b,4b,8b,4b,8b,4b,8b,4b,8b,4b,8b,5b,1b,5b,1b,5bV73[4:1],1b,5b,1b,5b-1b[8:1],,,,Cf,,,,
{32}2b,3,8,7,2,3,8,7,3,4,7,6,3,4,7,6,2,3,6,5,2,3,6,5,1h[8:1],,,,6,5,2,3,6,5,2,3,7,6,1,2,7,6,1,2,6,5,2,3,A8hf[16:3]/D1h[8:3]/E1hf[8:3],,,,,,,,,,,,,,,,
{32}3,3,4,4,2,2,5,5,1,1,8,8,2,2,7,7,5,5,6,6,4,4,7,7,3,3,8,8,2,2,1,1,3,3,4,4,5,5,2,2,1,1,6,6,8,8,7,7,A2hf[8:1]/D3hf[4:1]/A3hf[16:3],,,,,,,,,,,,,,,,
{32}1,8,1,8,1,8,1,8,1,8,1,8,1,8,1,8,2,6,2,6,2,6,2,6,2,6,2,6,2,6,2,6,3,7,3,7,4,8,4,8,5,1,5,1,4,8,4,8,D7hf[16:3]/A7h[8:3]/A6hf[8:3],,,,,,,,,,,,,,,,
{32}1,1,1,1,1,1,1,1,1,1,1,1,1,1,1,1,2h,2,4,3,8h,8,6,7,2h,2,1,3,5h,5,4,6,
{32}8h,1,2,3,4/8h,1,2,3,4/8h,7,6,5,4/8h,7,6,5,2b/E2hf[64:1],1b/E1hf[64:1],8b/E8hf[64:1],7b/E7hf[64:1],6b/E6hf[64:1],5b/E5hf[64:1],4b/E4hf[64:1],3b/E3hf[64:1],2b/E2hf[64:1]/Cf,,,,,,,,
{4}7bv5-3[2:7]*-1[2:5],,,,,,,,,,,,,,,8w4[8:1],,
