&title=ジングルベル
&artist=SEGA Sound Unit [H.]
&first=0
&des=SeiKA
&lv_7=?
&inote_7=(100)
{1},
{48}4,5h[48:1],4h[48:1],5,,,7b,,,4,5h[48:1],4h[48:1],5,,,1b,,,4,5h[48:1],4h[48:1],5,,,
{24}3b,,,26,37,48,1b/5b,,,{32}3,4,3,4,
{16}2q6[16:1]*>5[16:1],,8/4,,2b,,1,1h[16:3],6,6,4,4,{48}7,5,7,5,7,5,8,,,8,,,
{16}7p3[16:1]*<4[16:1],,1/5,7b,,8,,8h[16:3],3,3,5,5,{48}1,4,2,5,3,6,4,,,4,,,
{16}6q2[16:1]*<1[16:1],,4/8,,6b,,5,5h[16:3],2,2,8,8,{48}5,4,3,8,7,6,1,,,1,,,
{16}3p7[16:1]*>8[16:1],,5/1,,3b,,4,4h[16:3],7,7,1,1,{48}37,,,37,26,15,4b/8b,,,,,,
{16}5>2[16:1]/6p1[16:1],,78,,5b/6b,,8,8,6v1[16:1]/7,7,{48}2/7,3,4,7,,,7,,,7,,,27,3,4,7,,,
{16}5>2[16:1]/6p1[16:1],,78,,5b/6b,,8,8,57,4,{48}3,4,3,4,,,6,5,6,5,,,2,4,2,4,,,
{16}1,1,{48}28,3,4,5,,,17,6,5,4,,,8/3,4,5,6,,,{16}7b-3[16:1],8b-4[16:1],1b-5[16:1],2b-6[16:1],7b,8b,1b,2b,
{16}7,7,86,86,15,15,24,24,{32}3,3,3,3,2b,4b,2b,4b,{48}1b,5b,1b,5b,1b,5b,1b,,,,,,
{16}4pp1[8:1]/6qq1[8:1],,28,,4b/6b,,,,8pp5[8:1]/2qq5[8:1],,64,,2b/8b,,,,
{16}3p7[16:1]/7p3[16:1],,3<6[16:1]/7>2[16:1],,3/7,,,,{32}4,8,4,7,4b,6,4,5,4b,3,4,5,4b,6,4,5,
{16}3-5[16:1],3,12,12,7-4[16:1],7,18,18,2-5[16:1],2,81,81,6-4[16:1],6,78,78,
{16}3,2,1,8,37,2,1,8,{48}4h[8:1]/7,,,,,,7,6,5,4,3,2,1b,,,,,,,,,,,,
{16}5qq8[8:1]/3pp8[8:1],,71,,5b/3b,,,,1qq4[8:1]/7pp4[8:1],,35,3/5,,,,,
{16}6q2[16:1]/2q6[16:1],,6>3[16:1]/2<7[16:1],,6/2,,,,{32}5,1,5,2,5b,3,5,4,5b,6,5,4,5b,3,5,4,
{16}6-4[16:1],6,87,87,2-5[16:1],2,81,81,7-4[16:1],7,18,18,3-5[16:1],3,21,21,
{32}6,,7,,8,5,8,5,47,,3,,2,5,2,5,{48}1h[8:1],,,,,,4,3,2,1,8,7,6b,,,,,,,,,,,,
{48}4,5,3,4h[16:1],,,2h[8:1],,,,,,8h[8:1],,,,,,6h[8:3],,,,,,2h[4:1],,,,,,,,,,,,,15,48,37,26,15,48,,,,,,
{16}34,2,34,5,3v2[16:1]/4,1v7[16:1],3/4v5[16:1],6v8[16:1],,,,,,,2b,,
{16}65,7,65,4,6v7[16:1]/5,8v2[16:1],6/5v4[16:1],3v1[16:1],,,,,,,7b,,
{16}18,2,18,7,1v7[16:1]/8,3v4[16:1],1/8v2[16:1],6v5[16:1],,,,,,,2b,,
{16}15,16,17,18,8-4[50#32:1]*-4[50#32:1]/2,83,84,85,{48}8w4[16:1]/6,75,64,53,42,31,,,,,,,8b,,,,,,,,,,,,
{16}65,7,65,4,6v7[16:1]/5,8v2[16:1],6/5v4[16:1],3v1[16:1],,,,,,,7b,,
{16}34,2,34,5,3v2[16:1]/4,1v7[16:1],3/4v5[16:1],6v8[16:1],,,,,,,2b,,
{16}81,7,81,2,8/1,6,8/1,3,1h[8:1]/7b,7b,7b,7b,5h[8:1]/3b,3b,3b,3b,
{16}84,83,82,81,1-5[50#32:1]*-5[50#32:1]/7,16,15,14,{48}1w5[16:1]/3,24,35,46,57,68,,,,,,,1b,,,,,,,,,,,,
{48}5,4h[48:1],5h[48:1],4,,,2b,,,5,4h[48:1],5h[48:1],4,,,8b,,,5,4h[48:1],5h[48:1],4,,,
{16}75,7b/5b,,,24,2b/4b,,,
{24}2,,2,1/8-4[8:1],,7,7,,7,1-5[8:1]/8,,,2,,2,1/8-4[8:1],,7,,,7,1-5[8:1]/8,,,
{24}2,,2,1/8-4[8:1],,,7,,7,1-5[8:1]/8,,3,2,3,2,1/8-4[8:1],7,6,7,6,7,18,,,
{24}3,,3,5,,6,{48}5,7,5,7,,,3,,,,2,,4,,,,6,,5,,,,2,,1,3,1,3,,,7,,,,7,,
{48}5,,,,3,,4,,,,2,,1,,,,7,,8,,,,,,26,,,,,,,,,,,,1b/8b,2b/7b,3b/6b,4b/5b,,,,,,,,,
{24}7,,7,8/1-5[8:1],,2,2,,2,8-4[8:1]/1,,,7,,7,8/1-5[8:1],,2,,,2,8-4[8:1]/1,,,
{24}7,,7,8/1-5[8:1],,,2,,2,8-4[8:1]/1,,6,7,6,7,8/1-5[8:1],2,3,2,3,2,81,,,
{24}6,,6,4,,3,{48}4,2,4,2,,,6,,,,7,,5,,,,3,,4,,,,7,,8,6,8,6,,,2,,,,2,,
{48}8,4,8,4,8,4,8,4,8,4,8,4,6b/5b,,,,,,,,,,,,2,5,2,5,2,5,2,5,2,5,2,5,3b/4b,,,,,,,,,,,,
{48}7,4,7,4,7,4,7,4,7,4,7,4,6b/5b,,,,,,,,,,,,1,5,1,5,1,5,1,5,1,5,1,5,3b/4b,,,,,,,,,,,,
{24}5/7-3[16:1],,8,1-5[16:1],,,7/8q4[16:1],,,1/8p4[16:1],,,68,,,28,,,1/5,,3s7[4:1],4,,57,
{24},,,,,,,,,,,,18,,45,45,,26,,,,{48}2b/6b,3b/7b,4b/8b,1b/5b,2b,3b,4b,
