&title=祈雨の菖蒲
&artist=Nego_tiator
&first=0.05
&des=Dororo
&lv_5=13
&inote_5=
(186)
{16}
,,,,,,,,,,,,,,,,
1h[4:7]/8<2[2:3],,,,,,,,,,,,,,,,
,,,,,,,,,,,,,,,,
2V41[2:3]/4pp8[2:3],,,,,,,,,,,,,,,,
,,,,,,,,,,,,,,,,
8h[4:7]/1>7[2:3],,,,,,,,,,,,,,,,
,,,,,,,,,,,,,,,,
7V58[2:3]/5p2[2:3],,,,,,,,,,,,,,,,
,,,,,,,,,,,,,,,,
1h[4:3],,,,,,,,,,,,3h[4:3],,,,
,,,,,,,,5pp4[2:1],,,,4,,,,
2h[4:3],,,,,,,,,,,,4h[4:3],,,,
,,,,,,,,6>1[2:1],,6,,,,8,,
8h[4:3],,,,,,,,,,,,6h[4:3],,,,
,,,,,,,,4qq5[2:1],,,,5,,,,
7h[4:3],,,,,,,,,,,,5,,,,
5w1[2:1],,,,,,,,,,,,,,,,
2h[4:3],,8,,7,,6,,,,,,5,,6,,
7h[4:1],,,,8,,8h[4:1],,,,1,,1<3[2:1],,,,
2h[4:1],,,,,,2qq7[1:1]*qq6[1:1],,,,,,,,,,
,,,,,,,,,,,,,,,,
7h[4:3],,1,,2,,3,,,,,,4,,3,,
2h[4:1],,,,1,,1h[4:1],,,,8,,8>6[2:1],,,,
7h[4:1],,,,,,7q2[8:7]*q1[8:7],,,,,,,,,,
,,,,,,,,,,,,3,,,,
2h[4:1],,,,4,,4h[4:1],,,,5qq1[4:3],,,,6h[4:1],,
,,,,6,,,,7,,,,8,,,,
1/2h[1:1],,,,3>6[2:1],,3,,,,,,,,,,
,,,,,,,,6,,6,,5,,,,
7h[4:3],,6,,5,,4,,,,,,5q2[2:1],,5,,
,,,,,,,,8,,8,,1,,,,
2h[4:3],,3,,4,,5,,,,6,,5,,4V61[8:5]/3V52[8:5],,
,,,,,,,,,,,,,,,,
3,,3,,6-4[8:1],,6,,2,,2h[4:1],,,,5,,
4,,4,,7-5[8:1],,7,,3,,3,,,,,,
5,,5,,2-4[8:1],,2,,8,,8h[4:1],,,,5,,
6,,6,,4-1[8:1],,4,,7,,8,,1,,2,,
6,,6,,3-5[8:1],,3,,7,,7h[4:1],,,,4,,
5,,5,,2-4[8:1],,2,,6,,6,,,,,,
4,,4,,7-5[8:1],,7,,1,,1h[4:1],,,,4,,
3,,3,,5-8[8:1],,5,,2,,1,,8,,7,,
3,,6,5,6-3[8:1],,4,,3,,2-8[8:1],,,,5,,
6,,7,8,7-5[8:1],,1,,2,,3,,46,,5,,
7,,8,1,8-4[8:1],,2,,2,,3-8[8:1],,,,5,,
6,,7,1,7,1,7,,2,,3,,45,,,,
6,,3,4,3-6[8:1],,5,,6,,7-1[8:1],,,,4,,
3,,2,1,2-4[8:1],,8,,7,,6,,53,,4,,
2-6[8:1],,8,,12,,,,7-3[8:1],,1,,78,,,,
1-4[8:1],,1-6[8:1]/8,,18,,,,,,2,7,3,6,4,5,
4-8[8:1],,,,34,,3-1[8:1],,,,37,,7<3[4:1],,,,
3q8[4:1],,,,8,,,,2,,2,,1,,8,,
7-4[8:1],,,,78,,8v3[8:1],,,,18,,1h[4:1],,,,
4q5[8:3],,,,34,,3h[8:3],,,,,,6,3,5,4,
5-1[8:1],,,,56,,6-8[8:1],,,,26,,2>6[4:1],,,,
6p1[4:1],,,,1,,,,7,,7,,8,,1,,
2-5[8:1],,,,12,,1v6[8:1],,,,18,,8h[4:1],,,,
5q4[8:3],,,,56,,6h[8:3],,,,,,3,6,4,5,
4q8[8:1],,,,34,,2-4[8:1],,,,12,,1<4[4:1],,,,
4pp8[2:1],,,,3,,3,,,,2,,1,,8,,
7^4[4:1],,,,4^1[4:1],,,,1^6[4:1],,,,6,,,,
5pp4[8:3],,,,54,,3h[8:3],,,,,,6,3,5,4,
5p1[8:1],,,,56,,7-5[8:1],,,,78,,1,,2,,
3V52[2:1],,,,5,,,,2-6[4:1],,,,6-1[4:1],,,,
8,,8,,8,,8,,8,,8,,8,,8,,
18,2,3,4,5,6,7,8,16,5,4,3,2,1,8,7,
6z2[4:1]/3s7[4:1],,,,,,,,,,1-4[8:1],,78,,6h[4:1],,
,,5,,4,7,4,7,3-6[8:1],,12,,8z4[4:1],,,,
1<3[4:1],,,,,,,,1-6[8:1],,1-4[8:1],,,,,,
,,7,,6,4,6,4,8-4[8:1],,8,,,,,,
3V57[4:1]/6V42[4:1],,,,,,,,,,1>6[4:1],,78,,6,,
,,8,,8-3[8:1],,6,,8,,4,,4,5,3,6,
2h[8:3],,,,,,{24}7,6,5,{16}4h[4:1],,,,{16}5h[4:1],,,,
7-3[8:1],,,,1V36[4:1]*V74[4:1],,,,1b,,,,,,,,
3s7[4:1]/6z2[4:1],,,,,,,,,,8-5[8:1],,21,,3h[4:1],,
,,4,,5,2,5,2,6-3[8:1],,87,,1-5[8:1],,,,
7h[4:1],,,,4,6,4,6,3,,3-7[8:1]*-8[8:1],,3,,,,
,,7,,8,6,8,6,1w5[8:1],,1,,,,,,
5V71[4:1]*-3[8:1]/3,,,,,,,,2,,2,,8,1,8,1,
7,,5,,5-2[8:1],,6,,5,,8,,8,1,7,2,
7h[8:3],,,,,,{24}2,3,4,{16}5h[4:1],,,,{16}4h[4:1],,,,
2q6[8:1],,,,8>6[8:3]*<2[8:3],,,,8b,,,,,,,,
1h[4:1]/7h[4:1],,,,,,3,4,3,,5,,6,,7,,
8,,2,1,2,,8,1,8,7,6,5,2,3,4,5,
7,,3,4,2,,6,5,7,,1,,2,,3,,
4,,7,5,7,,3,5,3,,6,,8,,2,,
35,,6,5,6,,7,,48,,2,1,2,1,2,,
3,,24,,35,,46,,7,,68,,71,,28,,
3,,5,4,6,5,6,,47,,3,4,2,3,2,,
1h[4:1]/5h[4:1],,,,,,15,26,3/7V15[4:1],,,4,4,,,,
2h[8:3],,,,,,,,2b-5[8:1]/6b-1[8:1],,,,2b/6b,,,,
4w8[8:1]/8b,,,,,,,,1b/5w1[8:1],,,,,,,,
7h[4:7]/3b<2[2:3],,,,,,,,,,,,,,,,
,,,,,,,,,,,,,,,,
5-8[8:1]*-2[8:1],,,,5,,,,1,,1-5[8:1],,7,,1,,
8^5[8:1]*^3[8:1],,,,8qq4[2:1],,,,8,,4,,3,,2,,
1h[4:1],,,,3,,3q8[4:1],,,,8q4[4:1],,,,4^7[4:1],,
,,7^2[4:1],,,,2,,,,3,,3,4,3,4,
2h[4:1],,,,8,,8^5[8:1],,,,8^3[8:1],,,,8-5[8:1],,
,,8q3[8:3],,,,8,,,,5,,6,,7,,
8h[4:1],,,,6,,6p1[4:1],,,,1p5[4:1],,,,5>7[8:3],,
,,7,,,,{24}6,5,4,{16}3b,,,,1-5[8:1],8,2,7,
1,,,,46,3,2,1,7,6,5,4,2,1,8,7,
5,4,3,2,8,7,6,5,3,2,1,8,5-1[8:1],6,7,8,
1,,,,27,3,4,5,61,8,7,6,58,1,2,3,
8,1,8,3,8,2,8,4,8,3,8,5,8-4[8:1],4,8,6,
8,,,,53,6,7,8,2,3,4,5,7,8,1,2,
4,5,6,7,1,2,3,4,6,7,8,1,4-8[8:1],3,2,1,
8,,,,3-5[8:1]/7,,2,,7-4[8:1]/3,,8,,1-5[8:1]/7,,2,,
18,,8,,8,,8,,{32}8/4bw8[8:1],3,2,1,8,7,6,5,4,,,,,,,,
{16}
7b-4[8:1],,6,,78,,1b-5[8:1],,2,,18,,7b-3[8:1],,6,,
78,,1b-4[8:1],,2,,18,,8b-3[8:1]*-4[8:1],,7,,8,,,,
6b^1[8:1],,7,,65,,3b^6[8:1],,2,,34,,1b^6[8:1],,8,,
12,,4b^1[8:1],,3,,45,,8-4[8:1],,7-5[8:1],,8,,7,,
2b-5[8:1],,3,,12,,8b-4[8:1],,7,,18,,2b-6[8:1],,3,,
12,,8b-5[8:1],,7,,18,,1-4[8:1]*v6[8:1],,2,,1,,,,
3b^8[8:1],,2,,34,,6b^3[8:1],,7,,65,,8b^3[8:1],,1,,
78,,6-1[8:1],,5-2[8:1],,6,,5,,{32}6b,7,8,1,5b,4,3,2,1,8,7,6,
{16}
5s1[1:6]/1,,,,,,,,,,,,,,,,
,,,,,,,,,,,,,,,,
,,,,,,,,,,,,,,,,
,,,,,,,,,,,,,,,,
,,,,,,,,,,,,,,,,
,,,,,,,,,,,,,,,,
2h[1:5],,,,,,,,,,,,,,,,
,,,,,,,,{32},8,7,,{16},,,,,,
,,,,5h[4:11],,,,,,,,,,,,
,,,,,,,,,,,,,,,,
,,,,,,,,,,,,,,,,
,,,,,,,,,,,,,,,,
E
