&title=Deep Blue
&artist=Aqours
&first=-1.2499992
&des=蛆虫型谱师
&lv_5=13
&inote_5=(135)
{1},
{32}1x,2x,3x,4x,5x,6x,7x,8x,1xs5[8:3],2x,3x,4x,5xz1[4:1],6x,7x,8x,{4},,
{8}2bx/4bx,2,21,2,{16}35,,2,4,2,,35,,6,4,6,,75,,4,,{4}7-4[8:1]/3v8[8:1],73,
{8}7x/3x,7,76,7,{16}64,,7,5,7,,64,,3,5,3,,24,,6,,{16}7h[16:3],,4x,4x,6h[16:3],,3x,3x,
{8}6x,6,68,6,{16}74,,6,5,6,,25,,3,4,3,,{8}24,5,{4}2v5[8:1]/6-1[8:1],26,
{8}2x/6x,2,23,2,{16}27,,3,4,2,5,1>3[16:3],,,3<5[8:1],,,7pp3[8:3],7pp4[16:5],,,,,,,,,,,
{8}3hx[8:1]/5x,,4h[8:1]/6,,{16}3,4,,25,,,1h[4:1],,{8},7,6p4[4:1],,1>4[8:1],,,,
{8}7h[8:1]/5,,6h[8:1]/4,,{16}5<8[8:1]/4,,,3,,,{8}2h[4:1],,1,7qq8[4:1],,8>4[8:1],,,,
{8}3h[8:1]/5,,4h[8:1]/6,,{16}4,5,,56,,,7h[4:1],,{8},2,3q5[4:1],,5>1[8:1],,,,
{8}6h[8:1]/8,,7h[8:1]/1,,{16}1s5[16:3],,,8,,,7s3[16:3],,,,,,,,2,2,3,3,4,4,5,5,6,6,
{8}7b-5v4-2[8:3],,4,,1,,8pp3[4:1],{16}7,7,,,6,,{8}5-8[8:1],5,2v4[8:1]*<6[8:1],3,,,
{8}4V62[4:1],,2-6-8[16:3],,8,,5,5h[4:1],,3,4pp4[4:1],3,8pp8[4:1],,8,,
{8}4<7[8:1],,8-5[8:1]*z4[8:1],,8,,3x/6x,{16}3,4,,25,,6,{8}5-2-8-4[8:3],5,7-5[8:1],7,,,
{8}3-1v8-6[8:3],,8,,5v4[8:1],5,7>2[4:1],7,,4,5,6,,{16}B7,B4,B6,B3,B5,,
{8}1xv4[8:1]/5xv8[8:1],26,,,8xv5[8:1]/4xv1[8:1],73,,,1xv3[8:1]/5xv7[8:1],26,,,8/4xv2[8:1],7,6,5,
{8}5h[4:1],8>4[4:1],1,4<8[4:1],,8>4[4:1],,4,,5,6,7,7>2[8:1]*q3[8:1],,,,
{16}3-5[8:1],5-3[8:1],2,,,,,,6-4[8:1],4-6[8:1],7,,,,,,2-4[8:1],4-2[8:1],1,,,,,,7<4[8:1],5,8,,{8}1,2,3V52[4:1],,2-6[8:1],1h[8:1],,8,7,7h[8:1],{16}3,4,2,,51,,8,,6,5,7,,84,,1,,
{16}2x/1x,,3,4,,4,2,,8x/7x,,6,5,,5,7,,
{32}2x,3x,4x,5x,6x,7x,8x,1x,2x,3x,4x,5x,6x,7x,8x,1x,{8}2x/6x,{16}3,4,,3pp5[8:1]/5,,5>1[8:1]/7,{8},,8,7,64,{16}5,3,,6qq4[8:1]/4,,4<8[8:1]/2,,,,,
{8}1,2,{16}35,,6,4,,75,,5/3-7-1[16:3],,,7,,6>3[8:1],,6,,1,,2,2,,3q5[4:1],,3h[16:5],,,,,
{8},,{16}54,,3,4,,2-5[8:1]/6,,1/5-1[8:1],{8},,6,7,85,{16}7,5,,7-4[8:1]/3,,8/4-8[8:1],{8},2,3>6[8:1],,4-8[8:1],4,2,3,
{16}4,5,3h[8:1],,5,4,6h[8:1],,7>2[8:1],,,5-8[8:1],,,5,,2b>5[8:1]*-6[8:1],,,,{4},
{8}26,{16}4,5,,{8}2pp4[8:1]/4,4>8[8:1]/6,,{16},{8}7,6,
{8}53,{16}6,4,,{8}7qq5[8:1]/5,5<1[8:1]/3,,{16},{8}2,3,
{16}64,,3,5,,24,,4/6-2-8[16:3],,,2,,3<6[8:1],,3,,8,,7,7,,6p4[4:1],,6h[16:5],,,,,
{8},,74,{16}3,5,,{8}4-8[8:1]/7,5/8-3[8:1],,{16},{8}7,6,
{8}25,{16}6,4,,{8}5-1[8:1]/2,4/1-6[8:1],{16},{8}3,3qq8[4:1],,,5,6,7,
{8}28,{16}3,4,2,,7,7,3,5,1,8,4-1[8:1]b,6,1V35[8:1]*V75[8:1],8,4b,,,,{4},4w8[8:1],4,
{8}3b-8-5[2:1]/6,,7,,7,,7,,6-3-8[2:1]/7,,7,,7,,7,,7-1-6-2[2:1]/5,,5,,5,,5,,4-8-3-1[2:1]/6,,6,,6,,6,,
{8}78,78,16,16,25,25,34,34,21,21,83,83,74,74,65,65,
{16}4,6,4,6,3,5,3,5,2,4,2,4,1,3,1,3,8,8,6,,15,,3,4,2,6,1,8,3x-5[16:1]/7x-1[16:1],,,,
{4}3bV17[8:1]/7b-5[16:1],3/7>4[8:1],5,{16}6<1[8:1]/5,,4,4,,,3,,6<1[8:1]/5,,4,4,,,3,,8x-4[8:1]/4x-8[8:1],7x/3x,6x/2x,5x/1x,
{4}4x>1[8:1]/8x<5[8:1],8/4p6[8:1],2x,{16}3>8[8:1]/4,,5,5,,,6,,3>8[8:1]/4,,5,5,,,6,,6-4[8:1]/2-8[8:1],,,,
{4}6V82[8:1]/2-4[8:1],6/2<5[8:1],3,{16}2<7[8:1]/3,,4,4,,,5,,2<7[8:1]/3,,4,4,,,5,,1x-5[8:1]/5x-1[8:1],2x/6x,3x/7x,4x/8x,{4}5x<8[8:1]/1x>4[8:1],1/5q3[8:1],{8}7x,
{16}6,6,4,7,2,5,1x,2,3,,1x/5x,2,3,,1,5,2,5,3,4,2x,2x,
{32}8x,7x,6x,5x,4x,3x,2x,1x,8x,7x,6x,5x,4x,3x,2x,1x,{4}8x<5[8:1]/4>1[8:1],,
{4}2b<7[8:1],E1,6>3[8:1],E5,2<7[8:1],E1,6>3[8:1],E5,
{4}2>5[8:1],E4,6<1[8:1],E8,2>5[8:1],E4,{16}7x,7,4x,4,6,5,6,,
{4}4b-2[8:1]/3b,45,5/6-4[8:1],67,8-6[8:1]/7,18,2-8[8:1]/1,23,
{16}41,,1,,52,,3,4,1,,6,5,8,,27,,
{32}8x,7x,6x,5x,4x,3x,2x,1x,8x,7x,6x,5x,4x,3x,2x,1x,
{8}8x/4x,{16}3,5,,6qq4[8:1]/2pp4[8:1],,7/4>1[8:1],{8},,,6,25,{16}6,4,,3pp5[8:1]/7qq5[8:1],,2/5<8[8:1],{8},,,4,
{8}37,{16}4,5,,74,,6/3qq8[4:1],,,8,,7,,6,,5-3[8:1],,3-7[8:1]/6,36,,2,,1-3[8:1]*-5[8:1],,,,,{4},
{8}24,{16}3,5,,6-8[8:1]/4-8[8:1],,8-3[8:1]/5,,,,,,,8,,
{8}75,{16}6,4,,2/5-1[8:1],,4/1-6[8:1],,,2>6[16:3],,2h[4:1],,{8},,3,3,4,{8}57,{16}8,4,6,,2,2,6,4,8,1,5-8[8:1]b,3,8V64[8:1]*V24[8:1],1,5b,,,,{4},5w1[8:1]b,5,
{8}2bx/4bx,2,21,2,{16}35,,2,4,2,,35,,6,4,6,,75,,4,,{16}7-4[8:1]/3v8[8:1],62,51,,73,,,,
{8}7x/3x,7,75,7,{16}64,,7,5,7,,64,,3,5,3,,24,,6,,{4}7-5[8:1]*-3[8:1],7,
{8}6x/4,6,68,6,{16}74,,6,5,6,,25,,3,4,3,,{8}24,5,{8}2v5[8:1]/6-1[8:1],3,26,,
{8}2x/6x,2,23,2,{16}27,,3,4,2,5,1>3[16:3],,,3<5[8:1],,,7h[16:3][16:3],,,,A6,A5,A4,A3,2x/6x,,{1}6bq8p8b[4:7]/3bp1q1b[4:7],
E
