&title=The 89's Momentum
&artist=MYUKKE.
&first=0
&des=问号
&lv_5=13+
&inote_5=(128)
{8}
,,,
1h[4:1]/2>5[2:1],2,,,,,6,7,
7>2[2:1]/8h[4:1],7,,,,,3,4,
4-8[4:1]/5h[4:1],4,,,,,71,26,
35,
{16}4,3,2,1,8,7,6,5,48,,3,,4/2-6[8:1],,
18,,2>5[8:1],,,,2,,
6,6,,,2h[4:1],,3,,
4,,5-1[8:1],,,,5v7[8:1],,
4,4,,,3,,2,,
1,,2-6[8:1]/8,,3,,2/8-4[8:1],,
8,8,,,1-5[8:1],,1,,
1b,,8-4[8:1],,7,,6-2[8:1],,
5,,4w8[8:1],,3,,4b,,
,,2h[4:1],,,,3,4,
5,6,7,8,1-4[8:1],,1,,
1,,2h[4:1],,,,3,4,
5,6,7-2[8:1],,2-7[8:1],,,,
,,1,,1h[8:1],,2,3,
4,5,6-2[8:1],,57,,6,,
,,1V74[4:1],,28,,7,,
6,,5V72[4:1],,4,,4,,
4,,4h[4:1],,,,3,2,
1,8,7>3[8:1],,68,,57,,
6,,5h[8:1],,4,,4h[8:1],5,
5-1[8:1],,36,,4-8[8:1]/5,,3,,
45,,5h[4:1],,,,1,1,
1-5[8:1],,27,,1/8-4[8:1],,7,,
18,,1h[4:1],,,,6,5,
7,,2,4,3,,1w5[8:1],,
28,,1b>4[8:1],,,,1-5[8:1],,
7,7,1-4[8:1],,7<4[8:1],,1,,
7,,1b,,,,1<6[8:1],,
3,3,1-5[8:1],,3<6[8:1],,1,,
3,,1h[4:1],,,,8,7,
6,5,47,6,5,4,3/1-5[8:1],2,
3,4,1-3[8:1]/5,,3,,1-7[8:1]/5,,
7,,1V35[8:1]/5,,3,,1w5[8:1]/5,,
7,,1,,,,,,
1h[4:1],,3,,4,,,,
2h[4:1],,3,,4,,5,,
6,,7-5[8:1],,8-4[8:1],,7,,
8,,7<2[4:3],,,,7,,
4,4,,,3,,2,,
1,,1>5[4:3],,,,1,,
4,4,,,5,,6,,
7,,8z4[4:1],,8,,4s8[4:1],,
4,,,,,,,,
1,,,,7-4[8:1],,4,,
3-6[8:1]/7,,2,,3/8-4[8:1],,7,,
,,,,1h[4:1],,2,,
3,,4h[4:1],,,,,,
8/1h[4:1],,,,8,,8,,
7,,7,,6,,6,,
6,,4-1[8:1],,5,5,4,,
,,8-4[8:1],,7,,6,,
,,5-8[8:1],,6,,7,,
,,1h[4:1],,,,7h[8:1],,
,,1,1,5,5,2,2,
8,8,1-5[8:1],,1V74[4:3]/5V38[4:1],,15,,
,,,,,,,,
,,3,,2,,1-5[8:1],,
,,1/6,,7qq4[2:1],,8,,
8,,,,,,1h[8:1],,
,,3-8[8:1],,8,,3/7-4[8:1],,
6,,2-6[8:1]/7,,1,,2/8-4[4:1],,
1,,8/4>8[4:1],,,,8<4[4:1],,
,,4>8[4:1],,,,8-4[8:1],,
,,5-1[8:1],,,,4-8[8:1],,
,,4b/3b-7[8:1],,,,3b/4b,,
,,1,,2pp6[2:1],,1,,
1,,,,1,,8,,
7,,1-5[8:1],,8,8,7-3[8:1]/1,,
8,,1-5[8:1]/7,,8,8,7-3[8:1]/1,,
8,,17,,8,8,7,,
1,1,8,,2V48[1:1],2,1h[8:1],,
,,,,,,,,
,,5-7[8:1],,,,5,,
,,1h[8:1],,4,4,3h[8:1],,
8,8,1-5[8:1],,28,,1b,,
,,1,1,8h[8:1],,3,3,
8h[8:1],,5-8[8:1]*-2[8:1],,46,,5b,,
,,5,4,6,3,5,4,
6,3,5w1[8:1],,5,,5b,,
,,2,4,3h[8:1],,7,5,
6,,3-8[8:1]/7-4[8:1],,26,,3b/7b,,
,,4,5,3,6,2,7,
1,8,1<6[8:1]*>4[8:1],,1,,1b,,
,,1,8,2,7,3,6,
4,5,3v1[8:1]/6v8[8:1],,45,,3b/6b,,
,,8h[8:1],,2,2,1h[8:1],,
3,3,2h[8:1],,3V52[1:1],,3,,
3,,,,,,,,
,,6-1[8:1],,,,6,,
,,7-4[8:3],,,,5,,
4-8[4:1],4,,,3,,2,,
1,,1>4[8:3],,,,5,,
4-8[4:1],4,,,5,,6,,
7,,7<2[8:3],,,,3,,
2v7[4:1],2,,,5,,4,,
3,,1<6[8:3],,,,7,,
6-2[4:1],6,,,5,,4,,
3,,5>2[8:1],,,,57,,
8>3[8:1],8,,,8/7-2[8:1],,7,,
7b,,5<8[8:1],,,,45,,
3,3h[8:1],,,2/8-5[8:1],,28,,
28,,1,,13,,24,,
35,,46,5,6,7,8,1,
2,,8-4[8:1],,1,,2-6[8:1],,
3,,4w8[8:1],,4,,4b,,
,,1-5[8:1],,2,,31,,
3,,1-6[8:1],,2,,31,,
3,,1qq6[4:1],,2,,31,,
3,,,,,,4bw8[16:1]/5bw1[16:1],,
4b/5b,,45,,,,1,1,
1-5[8:1],,2,,1/7-4[8:1],,6,,
17,,1-3[8:1],,3-7[8:1],,1,,
5,,4-7[8:1],,4-1[8:1],,,,
,,8h[8:1],,,,8,1,
8,1,2/8-4[8:1],,1,,2/8,,
1,,2h[8:1],,5,,3h[8:1],,
6,,5w1[8:1],,,,5,,
,,1>3[8:1],,,,1-4[8:1],,
6,6,1w5[8:1],,,,1b,,
,,1<7[8:1]/2h[8:1],,,,1-6[8:1],,
3,3,1w5[8:1],,,,1b,,
,,3>1[8:1]/5h[8:1],,,,3-7[8:1],,
6,6,3w7[8:1],,,,3b,,
,,5-8[8:1],,4,,5,,
1,1,1bs5[8:1]/8bz4[8:1],,3b/6b,,1b/8b,,
,,1-5[8:3],,78,,6,,
5-2[4:1],5,,,6,,6,,
6,,1<6[8:1],,,,1-4[8:1]/6,,
5,5,1,,7-3[8:1],,68,,
7,,1,,24,,35,,
46,46,46,5,6,7,
{32}8,1,2,3,
{16}4-1[8:1]/5,,
36,,4/6-8[8:1],,7,,2-5[8:1]/6,,
1-4[8:1],,2,,1b,,,,
1b,,,1b,,,,,1b
,,,1b,,,,,
,,,,,,,,
,,,,,,,,
,,,,,,,,
,,,,,,,,
,,,,,,,,
