&title=劣等上等 (Long Ver.)
&artist=Giga
&first=0
&des_1=agiG
&des_2=agiG
&des_3=agiG
&des_4=agiG
&des_5=agiG
&des_6=agiG
&lv_6=14
&des_7=agiG
&des=agiG
&clock_count=4
&inote_6=(160){1},
{32}2x/7x,3x/6x,4x>5[32:30]/5x<4[32:30],,,,,,
{16},,,,,,,,,,,,,,,,,,
E6,,E7,,E8,,Ch[8:2],,,,
8b>8[8:8],,,,,,,,E3,,,,,,,,,,,,
2>4[8:1],,2,,,,8<6[8:1],,3,,2,,
1b,,5,,
4/1h[8:1],,,,7/1h[8:1],,,,
8/6h[8:1],,2hx[16:1],,4/6h[8:1],,,,
7/5h[8:1],,,,6/4h[8:1],,,,
5/3h[8:1],,,,
4/2,,2,,5,,5,,4,,4,,6,,6,,
7h[8:1]/8,,5,,8h[8:1]/7,,5w1[8:2],,
7,,,,,,,,
1/7,,6,,2/8,,3,,
1/7,,6,,2/8,,3,,
4-2[8:1],,7,,8,,1-4[8:1],,8,,7,,6,,5,,
3/4,,2,,5/6,,7,,
3/4,,2,,5/6,,7,,
8-6[8:1],,1,,4,,5-1[8:1],,4,,3,,2,,2,,
8-6[8:1],,1,,2,,3,,4-8[8:1],,5,,6,,7,,
7/1,,2,,3/8,,7,,1-5[8:1]/6-2[8:1],,,,,,,,
4x-7[8:1],,,3,,,1,,
8x-3[8:1],,,4,,,5,,
6x-3[8:1],,,7,,,8,,
2,1,3,8x-4[8:1],4`E7f,,,,
3,,2,,
1/7,,5,,2/8,,4,,
1/7,,5,,2/8,,4,,
7-3[8:1]/1,,3-7[8:1],,4/7,,4,,5,,5,,
4/6,,8,,3/5,,1,,
4/6,,8,,3/5,,1,,
4/6-3[8:1],,3-6[8:1],,6/8,,8-5[8:1],,1,,1,,
2,,3,,4/5,,6,,7v5[8:1]/8q4[8:1],,,,7p3[8:1]/8,,,,7,,2,,
1/8,,7,,6v8[8:1]/5p1[8:1],,,,5/6q2[8:1],,,,6,,3,,
3/4,,1,,4/7,,8,,2/5,,8,,
5/6<1[8:1],,4,,5-1[8:1]/6,,3,,4/5,,3,,2-6[8:1],,1/8,,7/2b,,4,,
4hbx[1:1]/8bx,,,,E7,,,,,,,,E2,,,,
2h[1:1],,,,E8,,,,,,,,E5,,,,
6h[1:1],,,,E3,,,,,,,,E1,,,,
2>2>4[8:6],,,,,,,,,,,,,,,,
6hb[2:1],,,,5,,,,,,3,,4h[4:1],,,,
2h[2:1],,,,3,,,,,,8,,1h[4:1],,,,
7h[2:1],,,,6,,,,,,5,,6h[4:1],,,,
4h[2:1],,,,5,,,,,,1,,2h[1:0],,3/8,,
4b/7bV51[4:1],,,,3,,2,,2bV84[4:1],,,,7,,6,,
5b-2[8:1],,,,1-5[8:1]/5b,,,,1b/8,,7,,
{32}6b,4,3,2,1bx,8,7,6,
{16}5bxs1[8:2]*z1[8:2],,,,,,,,,,,,2-6[8:1]/8,,,,
8-4[8:1]/2,,,,2-8[8:1]/8,,,,2/7-3[8:1],,6,,3/7,,4,,
5w1[8:1],,,,5,,,,
3x/7xp1[6:1],,1q7[6:1],,7,,2,,
8p4[8:1],,,,3/8,,2,,1-3[8:1],,5-7[8:1],,1-5[8:1],,5-1[8:1],,1,,
8,,7,,6,,5w1[8:1],,,,5,,,,
6x-2[8:1]/4x,,,,4-8[8:1]/6,,,,7-3[8:1]/4,,6,,1/7,,2,,
1w5[8:1]/3,,,,1,,,,
2x/6xV83[6:1],,3V16[6:1],,6,,4,,5,,4,,
3b>8[8:1],,,,3/7,,6,,5b-3[8:1],,1-7[8:1],,5-1[8:1],,1-5[8:1],,5b,,
4,,3,,2,,
1-5[12:1],,1,,1h[8:1],,,,
7-3[12:1],,7,,7h[8:1],,,,
5-1[12:1],,5,,5h[8:1],,,,
3-7[12:1],,3,,3h[8:1],,,,
1V35[8:1],,1,,1h[8:1],,,,
7V13[8:1],,7,,7h[8:1],,,,
5V71[8:1],,5,,5h[8:1],,,,
3V57[8:1],,3,,3h[1:0],,2,,
1,,8,,1bs5[8:6]/6bV82[8:6],,,,,,,,,,,,,,,,,,,,,,,,,,,,,,,,
4V68V24[8:6],,,,,,,,,,,,,,,,
E8,,E7,,E3,,E4,,A1,,C,,5b-8[8:1],,,,
4x/5b,,2,,1,,3,,4-1[8:1],,2,,8,,,,
7,,6,,5,,3-8[8:1],,1,,3,,7h[4:1],,,,
5,6,5,6,4,,2/8,,3,4,3,4,2,,5,,
3-7[8:1],,8,,3/7x-3[8:1],,6,,3-7[8:1]/7x,,4,,3x/7b,,,,
5b-8[8:1],,,,
4x/5b,,2,,1,,3,,4-7[8:1],,8,,7,,6,,
5-8[8:1],,3,,1,,4,,7h[4:1],,,,
3,4,3,4,2,,1/7,,5,6,5,6,4-8[8:1],,8V25[4:1],,4,,6,,7,,
8h[8:3],,E5,,E3,,1x-5[8:1],,,,
1b/6V82[4:1],,6,,4,,4h[8:1],,,,
1,,3-8[8:1],,2,,3bV57[4:1]/4,,4,,1,,1h[8:1],,,,
8,,2,,3/7,,4/6<6<8[8:6],,,,4h[8:4],,,,,,,,,,,,
4-1[8:1],,4,,7-2[8:1],,7,,5w1[8:1],5,,,5b,,,,
3bx/7bx,,6,5,7h[8:1],,2,4,3h[8:1],,
6,5,6,5,7h[8:1],,3,4,3,4,2h[8:1],5,6,7,
8,1,2,1,3h[8:1],,4<7[8:1],,4,,1-5[8:1],,1,,
8-3[8:1],,8,,4-7[8:1],,4,,5,,6,,
1/7,,2/8,,3/1,,2x/4x,,5x/7x,,1x-4[8:1]/8x-5[8:1],,2x/7x,,
1bpp6[8:6]/8b`Cf,,,,,,,,,,,,E5,,,,
3h[1:1],,,,E1,,,,,,,,E7,,,,
5h[1:1],,,,E2,,,,,,,,E6,,,,
4h[4:1],,,,5,6,7,8,1,2,3,4,5,6,7,8,
1/5hb[2:1],,,,8,,,,,,6,,5h[4:1],,,,
7h[2:1],,,,6,,,,,,1,,8h[4:1],,,,
2h[2:1],,,,3,,4,,5,,3/6,,4/7,,
8,5,8b-4[8:1],,,,8/1,,2,,3bw7[8:1],,,,3,,,,
1bx>3[12:1]/5bx,,,,6<1[8:1]/1,,,,
4-8[8:1]/6,,3,,4/6,,7,,1w5[8:1],,,,1,,,,
3x/7xv5[8:1],,4/5<8[8:1],,3/7,,4,,2-6[8:1],,,,
2/8,,7,,5<7[8:1],,1>3[8:1],,5p1[8:1],,1p5[8:1],,5,,
4,,3,,2,,1w5[8:1],,2/8,,1,,,,
3bx/7bxq3[8:1],,,,1>4[8:1]/7,,,,
1/5-1[8:1],,6,,5/7,,8,,2w6[8:1],,,,2,,,,
8x/4xV28[6:1],,7V13[6:1]/5,,4,,5,,
6-2[8:1],,8,,6b/3b,,4,,5>3[8:1],,1<7[8:1],,5b-1[8:1],,1-5[8:1],,
5,,6,,7b-3[8:1],,8,,1/7b,,
2>5[12:1],,2,,2h[8:1],,,,
8>3[12:1],,8,,8h[8:1],,,,
6<1[12:1],,6,,6h[8:1],,,,
4<7[12:1],,4,,4h[8:1],,,,
2V46[8:1],,2,,2h[8:1],,,,
8V24[8:1],,8,,8h[8:1],,,,
6V82[8:1],,6,,6h[8:1],,,,
4V68[8:1],,4,,4h[1:0],,3,,2,,1,,8,,
2b-6^8V25[8:12]*-6^8-3-5[8:12]/6b,,,,,,,,,,,,,,,,,,,,,,,,,,,,,,,,
2b-5[8:1]/7b-4[8:1],,,,7b>2p6[8:3]/2b,,,,
4hx[16:1],,4hx[16:1],,3hx[16:1],,2hx[16:1],,1hx[16:1],,
8x-4[8:1],,7x,,6x,,5x-2[8:1],,,,5b/6x-1[16:2],,,,
2x<7q4[8:3]/6b,,,,
5hx[16:1],,5hx[16:1],,6hx[1:0],7hx[1:0],8hx[1:0],,
1x-5[8:1],,2hx[16:1],,3hx[16:1],,4hx[16:1],,
6x-2[8:1],,7x,,8x-6[12:1],,,,1x-5[8:1]/8b,,,,
1b/2x-4[12:1],,,,2b<7p5[8:4],,,,
5hx[16:1],,5hx[16:1],,4hx[16:1],,3hx[16:1],,2hx[16:1],,1hx[16:1],,
8x-4[8:1],,7x,,6x-2[8:1],,5x,,3x,,3x,,
8b<5p3[8:4],,,,
3hx[16:1],,3hx[16:1],,2hx[16:1],,1hx[16:1],,8hx[16:1],,8hx[16:1],,
8x-4[8:1],,7x,,6x,,5x,,3x-6[8:1],,1,,2-7[8:1]/3,,,,2x,,,,,,,,
E7,,E6,,,,E2,,,,E8,,E7,,,,E5,,,,E3,,,,
E1,,,,,,,,E4,,E6,,,,E3/E7,,,,E1,,E5,,,,C,,,,E2/E8,,,,
E5,,,,,,,,E2,,E3,,,,E7,,,,E5,,C,,,,E2/E8,,,,E6/E4,,,,
C,,,,,,,,E6,,E5,,,,E2,,,,E7,,Ch[8:6],,,,E3,,,,E6,,E4,,
2hx[2:1],,,,,,,,4,,3h[4:1],,,,5h[4:1],,,,4,,6h[4:1],,,,5-3[8:1],,,,5,,,,
7h[2:1],,,,,,,,1,,8h[4:1],,,,2h[4:1],,,,1,,3h[4:1],,,,4-6[8:1],,,,4,,,,
1h[2:1],,,,,,,,7,,8h[4:1],,,,3h[4:1],,,,6,,7h[4:1],,,,5-8[8:1],,,,5,,,,
6xh[2:1],,,,,,,,1,,7,,2,,8,,3,,1,,1-4[8:1],,,,1/3-6[8:1],,,,3/6,,,,
8b<3[6:1],,,,2,,1bV35[6:1],,,,6,,7b-4b[8:1],,,,
7,,3,,1-5[8:1],,8,,4-7[8:1]/1,,3,,1b,,,,
8b>5[6:1]/7,,,,5,,6bV82[6:1],,,,4,,5b-1b[8:1],,,,
5,,7,,6-1[8:1],,1,,8-3[8:1]/6,,2,,3b,,,,
4b>7[6:1]/6,,,,6,,5bV72[6:1],,,,3,,4b-8b[8:1],,,,
4,,7,,5-1[8:1],,8,,6-2[8:1]/5,,7,,8b,,,,
1b<4[6:1],,,,3,3,2bxV86[6:1],,,,5,5,4bx-8b[8:1],,,,
4pp7[8:10],,1bpp4[8:9],,,,,,,,,,,,,,,,,,,,,,,,
E8/E2,,E6/E4,,C,,
3x/6x<3>6[8:6],,,,,,,,A5/A4/E5,,,,,,,,
8x>5>8[8:6],,,,A6/A5/E6,,,,A7/E8/E7,,,,,,,,
6x<3>6[8:6],,,,,,,,A5/A4/E5,,,,,,,,
8x>5>8[8:6],,,,A6/A5/E6,,,,A7/E8/E7,,,,,,,,
5xs1[8:2]*z1[8:2],,,,,,,,,,,,
2-4[12:1]/8,,,,2b/6-1[8:1],,7,,4-7[8:1]/6b,,3,,2/4b,,1,,2/8-4[8:1],,3/7-3[8:1],,
8b>4[8:1],,7,,8b,,5,,6,,7,,8bw4[8:1],,5/6,,8b`Cf,,,,
2x/6x-1[8:1],,1x-4[8:1]/7x,,6,,2,,3,,5-1[8:1],,4,,
5/6,,7-5[12:1],,8-2[12:1],,7p3[8:1]*v4[8:1],,8,,7,,,,
2/8-3[8:1],,7,,5-1[8:1]/8,,4,,2/5,,3,,
7,,4/6-1[8:1],,5-2[8:1],,6,,5,,
8,,7,,6,,5-1[8:1],,1<6[8:1],,5,,3,,2b>5[8:1],,1,,
2/5,,6,,7b-5[12:1],,8-2[12:1],,7-3[8:1],,8-4[8:1],,7b,,
8,,6hx[32:1],,
1x>4[8:1],,2x,,3hx[8:1],,,,
5<8[8:1],,6,,7h[8:1],,,,
1-5[8:1],,2,,3h[8:1],,,,
6-2[8:1],,7,,8h[8:1],,,,
3V17[8:1],,4,,5h[8:1],,,,
6,,6V42[8:1],8,7,1,
6,,1,7,2,6,3,5,
{32}4/E6,E7,E8,E1,E2,E3,E4,E5,
{16}E6/Cf,,E8,E2,E6,E4,E7,E3,E1,E5,C,,
2bx/7bhx[8:1],,4x,,
1h[8:1]/6,,4,,
8h[8:1]/3,,5,,
1h[8:1]/7,,4,,
8h[8:1]/2,,5,,
4h[8:1]/6,,1,,
5h[8:1]/3,,8,,
1h[16:1]/7,,5h[16:1]/6,,
8h[16:1]/2,,4h[16:1]/3,,
1h[16:1]/7,,4h[16:1]/6,,
8h[16:1]/2,,5h[16:1]/3,,
1h[16:1]/7,,4h[16:1]/6,,
8h[16:1]/2,,
3/7,,1/5,,2/6,,4<7[8:1]/8>3[8:1],,,,
4w8[8:1]/8,,,,4,,,,
2bx/6bxpp3[8:3],,,,4-1[8:1],,,,4,,,,
8v3[8:1],,,,4v6[8:1]/8,,,,4/2-8[12:1],,,,2,,,,
7qq2[8:3],,,,1>4[8:1],,,,1<6[8:1],,,,1/3,,,,
4,5,3,4,2v5[8:1],,,,7v1[8:1]/2,,,,7x/E6,,,,
8/2,,3,,7/1,,6,,
8/2,,3,,7/1,,6,,
5/3,,2,,6/4,,7,,
5/3,,2,,6/4,,7,,
7/8,,7/8,,3/4,,3/4,,
2/1,,1/2,,5/6,,5/6,,
4,7,3,4,2,8,1,7,
{32}5,4,3,2,1,8,7,6,
{16}5w1[8:1],,,,5,,,,
E2,E8,,,
C,,E6,E4,
{32}
E1,E2,E3,E4,
E5,E6,E7,E8,
{16}
B3/A3,B7/A7,B1/A1,B5/A5,C,
A2,A8,A4,A6
,,,,
{32}
1x/8x,2/7,3/6,4/5,
{16},,
E
