&title=希望有羽毛和翅膀
&artist=王可鑫 Eli.W (HOYO-MiX)
&first=0
&des=RailX
&des_5=RailX
&lv_5=13
&inote_5=(128){4},{1},,{4},,,{1}8<3<6-2[2:15],
{2}E2,B3,
{1}B1,
,{2}E7,
E6,
B7,B5,
{1}Cfh[1:2],
,{4},1/8-5[8:1],
2,4/3-8[8:1],
5,6-3[8:1]/7-2[8:1],6x/7x,1-4[8:1]/4-7[8:1],
4x/1x,3/8<4[4:1],4b>8[4:1],8bv5[4:1],
,,{8},B6,{4}B3,
B7/B2,6/3v1[8:1],7/3,2/7v5[8:1],
3/7,2v4[8:1]/6v8[8:1],6/2,3v2[8:1]/7v6[8:1],
3/7,5/1v4[4:1],4b-2-8[4:1],8bw4[4:1],
{2},{8}5,4<8[8:1],3,4x,
,{64}4xV68[8:1],D4,A3,D3,A2,D2,A1,D1,{8}A8,4x,,{64}4xq8<5b[4:1],D4,A3,D3,A2,D2,A1,D1,{8}A8,4bx,
{4},{8},1,8,1-4[8:1],8,1x<7-5[4:1],
,5x-3>1[4:1],,1xp5[4:1],,5xp1[4:1],{2},{8}1x/8xh[8:1],
1,8,7/2bxh[8:1],7,2,
3/6,4/5,{4}5/4h[16:1],4/5h[16:1],{16}4,5,3,6,
4,5,3,6,4,5,3,6,2,7,{8}2v7v2>4v5<7[2:3],,2xh[2:3],
{1},{4},,{8},8bv5[8:1]/1bv4[8:1],
,1/8,
{4},{8},3/7s3<7[2:1],,3>7b[4:1],{4},,{8},B6/B3,
,5bp8[8:1]/4bq1[8:1],,4/5,
{4},{8},7/2-6v3[2:1],,6>3b[4:1],{4},,{8},B6/B3,
,5s1[8:1]/4z8[8:1],,4/5,
{4},{8},2/8v2>3-5[2:1],,8<7-5b[4:1],{2},{8}6/3,
2h[16:1]/7h[16:1],,7h[16:1]/2h[16:1],,8bh[8:1]/1bh[8:1],
,{32}7x/2x,3/6,{16}4/5,{8}4x/5x,4bx-1b[0.2344##0.2344],4bx,8bx-5b[0.2344##0.2344],8bx,3bx-8b[0.2344##0.2344],
3bx,7bx-4b[0.2344##0.2344],7bx,{16}3bx,6x,4,5,{8},{4}5b/4b>1b[8:1],
{32}4bx/5bx,6x,7x,8x,{8},{4}3/7v5[8:1],{8}7/3,3x>6[4:1],,6x<3[4:1],
,3x>6[4:1],,6x<3[4:1],,3x,{4},{32}5bx,
6x,7x,8x,1x,2x,3x,4x,5bx,6x,7x,8x,{64}A1,D2,A2,D3,A3,D4,A4,D5,{32}5bx,6x,7x,8x,{64}A1,D2,A2,D3,A3,D4,A4,D5,{32}5bx,6x,7x,8x,{64}A1,D2,A2,D3,A3,D4,A4,D5,
{32}5bx,6x,7x,8x,{64}A1,D2,A2,D3,A3,D4,A4,D5,{32}5bx,6x,7x,8x,{64}A1,D2,A2,D3,A3,D4,A4,D5,{4},5b/4b>1b[8:1],
{32}4bx/5bx,6x,7x,8x,{8},{4}6/2v4[8:1],{8}2/6,6x<3[4:1],,3x>6[4:1],
,6x<3[4:1],,3x>6[4:1],,6bx,{4},{8}5/4-1[8:1],
3,4/5-8[8:1],6,5/4v2[8:1],3,4/5-8>5b[2:1],6,
{4}5bx,{2},{4}4b/5b,
{32}4bx/5bx,3x/6x,2x/7x,1x/8x,{8},{4}2/7v4[8:1],{8}2/7,1>4[8:1],,1/8,
,{32}8x-3[8:1],7,6,5,{8},8-5[8:1],,8,{4},{8}1-3[8:1],
5,1-7[8:1],5,1>4[8:1],5,1<6[8:1],5,
1s5-3[8:3],5,{4}1b,,4b-1b[8:1]/5b-8b[8:1],
4b/5b,{8}7/2,2,3/6,6,8/1,3/4,
8/1,5/6,{16}2,2,6,6,4x,5,4,5,4,5,4,5,
4,5,4,5,4,5,4,5,4h[32:1],5h[32:1],4h[32:1],5h[32:1],{32}4bx,3,2,1,8,7,6,5,
4bx,3,2,1,8,7,6,5,4bx,3,2,1,8,7,6,5,4bx,3,2,1,{8}8/E5f/B5/B4,{4},{2}2,
2h[2:1],
{32}7,6,{16}5,{4},{8},{2}7h[2:1],
{32}2,3,{16}4,{4},{8},{2}8h[1:1]/1h[1:1],
{4},,{32},E8/E2,E7/E3,E6/E4,{4},{8},{32}2/7,
6,5,4,{4},{8},{2}B7/B2/B6/B3,
{32}2/7,3,4,5,{4},{8},{2}1h[2:1]/8h[2:1],
{32},E8/E2,B7/B2,B6/E6/B3/E4,{4},{8},{2}Ch[16:7],
{4}2xv3[8:1]/7xv6[8:1],2/7,{32}2bx,3,4,5,6,7,8,1,{4}2/7bx,
7/1-3[8:1],1p7<4[2:1],{2}1,
{4}2-7[8:1],2>4pp1[2:1],{2}2,
{4}7-5[8:1],7q1<5[2:1],{2}7,
{4}3-1[8:1],3q5>2[2:1],{2}3,
{4}6<8[8:1],6pp1[2:1]/5-3[8:1],{2}6/5,
{4}4>2[8:1],4qq1[2:1]/5-7[8:1],{2}5/4,
{4}6-4[8:1],6-8[8:1],{8}6/1-4[0.2344##0.2344],1,7x-2[0.2344##0.2344],7,
3x-6[0.2344##0.2344],3,5x<1[0.2344##0.2344],{32}5x/1x-5[0.2344##0.2344],2,3,4,{16}5x,Cf,{8},{4}4bxq1b[8:1]/5bxp8b[8:1],
4b/5b,{8}7/2x>4[8:1],8/1,{4}2/7V53[4:1],7/3V17[4:1],
7<3[4:1],3>7[4:1],{2}7,
{32}7bx/2,3,4,5,6,7,8,1,2/7bx,3,4,5,6,7,8,1,2/7bx,3,4,5,6,7,8,1,7bx/2,3,4,5,6,7,8,1,
2/7bx,3,4,5,6,7,8,1,7bx/2,3,4,5,6,7,8,1,{4}7bx/2,5b/4b,
{32}4b/5b,E6/E4,B6/B3,B7/B2,{8}E8/A8/E2/A1,{4}7-5[8:1]/2-4p7[4:1],{12}2/7>3[4:1],,,{4}3x<7[4:1],
7x>3[4:1],{12}3xs7b[4:1],,,{2}7x,
{8}2-4[8:1],3,2/8-5[8:1],7,8/1-4[8:1],2,1/7bx-5v2V47b[2:1],6,
{4}7bx/2,{2},{4}4b/5b,
{32}4bx/5bx,3/6,2/7,1/8,{8},{4}7xq5[8:1],{32}8x/7x,1x,2x,3x,{8}4x<7[8:1],,4,
,{32}4x-7[8:1],3x,2x,1x,{8},4,,{32}4,E4,B3,B2,{4}A1/E2,
{8}5-7[8:1],4,5-8[8:1],4,5-1[8:1],4,5-8[8:1],4,
5<4[4:1],4,{2},{4}4bv1b[8:1]/5bv8b[8:1],
5b/4b,{8}2/7,3,3/6,5,4/5-8[8:1],5,
5/3>1[8:1],3,3/6<8[8:1],6,6/4-1[8:1],4,{4}4/5,
Cfh[4:7],2,1,2,
1,2<7b[8:1],{2}2,
{1}1x/8bx<3<6-2b[4:27],
A1/B1/E2,
{8}1h[4:1],{4},{8}1,{2},{8}8h[4:1],
{4},{8}8,{2},{1}B3,
B7,
,,,C,
