&title=動く、動く
&artist=水瀬いのり/久保ユリカ
&first=-1.234
&des=TragiC
&lv_5=12
&des_5=TragiC
&inote_5=
(128){4},{16},,,,,,,,,,,,2h[16:7]/4<7[4:1],
,,,,,,,,,,8h[8:1],,,{8}7h[8:3]/1h[2:1],
{16},,,,,,,,,,,,,,,,7h[16:7]/5>2[4:1],
,,,,,,,,,,6h[8:1],,,{8}1h[8:3]/5h[2:1],
{16},,,,,,,,2,4,2,4,{4}3-1[8:1]*-5[8:1],
{16},,,,,,,,,,,6h[8:1],,,{8}7h[8:3]/5h[2:1],
,,,,8,8,5-3[8:1]*-7[8:1],5,
{16},,,,,,,,,,,3h[8:1],,,{8}4h[8:3]/2h[2:1],
{32},,,,,,,,,,,,,,,,6,5,,,{8}7h[8:1],{16}B5,B4,{8}E4,
{4}8/2h[4:1],{16}B8,C,,B4,,,,5h[8:1],,,{8}4h[8:3]/6h[4:1],
{16},,,,B6,B7,{8}E8,4,4,6-8[8:1],6,
{4}5,{16}B5,C,,B1,,,,8h[8:1],,,{8}1/7h[8:5],
{48},,,,,,,,,,,,1xqq3b[8:3],B1,C,B5,{4},,{16},,{24},{8}6h[8:1],
{16}4,5,3-1-5[4:1],5,{8}2,{2}8h[4:1],
{8}4h[8:1],{16}6,5,7-4-1[4:1],5,{8}8,{2}2h[4:1],
{8}8h[8:1],{16}2,1,{8}3h[8:1],{16}5,4>2[8:1]*-8[8:1],{2}6h[8:1],
{8}7/1-5[8:1],7,{4}1/6,{8}4/7-3[8:1],4,{4}3/7,
{8}2h[8:1],{16}4,3,5-7-3[4:1],4,{8}6,{2}8h[4:1],
{8}7h[8:1],{16}5,6,4-8-6[4:1],5,{8}3,{2}2h[4:1],
{8}5h[8:1],{16}1,4,2-4-8[4:1],4,{8}3,{2}6h[4:1],
{8}1/7-4[8:1],1,{4}7/2,{16}1x/5x,8x,7x,6x,5x,4x,3x,2x,
{8}1x/7xh[4:3],,,6,{2}5h[4:1],
{8}4h[4:3],,,6,{2}7bxh[4:1],
{8}6h[4:3],,,5,{2}4h[4:1],
{8}3h[2:1],,,5,4,4,{4}5b/1b-5-3-8[4:3],
1/6,6,7,7<4-8-6[4:3],
7/1,1,2,2,
{8}3/5,5/3,4/6,6/4,3/7,3/7,8/2,8/2,
{16}3,3,7,7,{32}2x,3x,4x,5x,6xp5b[8:3],7x,8x,1x,{2}2xh[4:1],
{4}1-7[8:1],2-6[8:1],3-5[8:1],{8}7,7,
6-4[8:1],4-8[8:1],6,3,2,1,7/8,6,
5/2,{16}3,4h[16:3],,,{8}2,1/7,{16}6,8h[16:3],,,{8}5,
1-3[8:1],4-8[8:1],1,4,,7,6,5,
{4}1-7[8:1],2-6[8:1],3-5[8:1],{8}7,7,
8-4[8:1],4-7[8:1],8,2,3,8,2/1,3,
4/7,{16}6,5h[16:3],,,{8}7,8/2,{16}3,1h[16:3],,,{8}4,
{16}5b/8,,,7b/4,,,{8}6/3bq6b[8:3],{2}5b/2h[8:3],
{4}1-7[8:1],2-6[8:1],3-5[8:1],{8}8,8,
7-5[8:1],3-1[8:1],7,3,4,8,6/1,7,
8/2,{16}3,4h[16:3],,,{8}2,1/7,{16}6,5h[16:3],,,{8}7,
8-4[8:1],3-1[8:1],8,3,,5,6,7,
{4}1-7[8:1],2-6[8:1],3<5[8:1],{8}8,8,
7-4[8:1],3-8[8:1],7,3,5,1,6/2,7,
{4}8h[8:1]/2h[8:1],3h[8:1]/4h[8:1],1h[8:1]/7h[8:1],6h[8:1]/5h[8:1],
{16}7/4b,,,6b/3,,,{8}2b/5q8b[8:3],{2}4b/1h[4:1],
{16}2h[16:7],,,,,,,,,,,4h[8:1],,,{8}3h[2:1]/5h[8:3],
{16},,,,,,,,,,,,,,,,7h[16:7]/4h[4:1],
,,,,,,,,,,5h[8:1],,,{8}4h[8:1]/6h[8:1],
E
