&title=LUCKY CAT
&artist=すばる
&first=0
&des=Sph!!!nx-100%
&clock_count=4
&lv_5=13+
&inote_5=(167)
{1},
{16}
6<2x[8:5],,,,4,,,,,,4,,4,,,,
3>7x[8:5],,,,4,,,,,,4,,4,,,,
6V82x[8:5],,,,4,,,,,,4,,4,,,,
3>7x[8:5],,,,4h[8:1],,,,3h[8:1],,,,2h[8:1],,,,
1>5x[8:5],,,,7,,,,,,7,,7,,,,
6>2x[8:5],,,,7,,,,,,7,,7,,,,
1V35x[8:5],,,,7,,,,,,7,,7,,,,
7h[8:1]/5h[8:1],,,,6h[8:1]/4h[8:1],,,,5h[8:1]/3h[8:1],,,,4h[8:1]/2h[8:1],,,,
{32}4hbx[8:1],,,,1,2,3,,5hbx[8:1],,,,2,3,4,,6w2b[8:1],,5,,6,,,,,,,,,,,,
{16}
2/8h[8:1],,6,,7/1h[8:1],,3,,25,,4,3,5,4,6,,
5/7h[8:1],,3,,2h[8:1]/4,,6,,4,5,3,4,3,5,4,,
5/6h[8:1],,8,,2h[8:1]/4,,8,,57,,6,4,5,3,4,,
62,,3,3,,4,,7/5h[16:3],,,6,4,5,3,6,4,
5bx/3bx,,2,,6bx/4bx,,7,,8bx/2bx,,3,4,3,4,3,,
4bx/6bx,,7,,3bx/5bx,,2,,7,5,6,5,6,4,5,,
2bx/4bx,,5,,6bx/3bx,,4,,7bx/5bx,,4,6,4,6,4,,
7h[8:1],,1,1,,3,,5/1h[2:1],,E6,E7,E8,E1,E2,E3,E4,
5-8[8:1],,,,6h[4:1],,,,1-4[8:1],,,,2h[4:1],,,,
5-8[8:1],,,,6h[2:1]/5qq3[4:1],,,,,,,,,,7,4,
8-4[12:1],,,,,,2,5,1-5[12:1],,,,,,7,4,
8-5[12:1],,,,2/8-3[12:1],,,,6/8-5[12:1],,,,28,,,,
4-1[8:1],,,,3h[4:1],,,,8-5[8:1],,,,7h[4:1],,,,
4-1[8:1],,,,3h[2:1]/4p7[4:1],,,,,,,,,,6,5,
7-5[12:1],,,,,,3,4,2-5[12:1],,,,,,7,6,
8-4[8:1],,,,1-5[8:1],,,,2-6[8:1],,,,3,,,,
47,,5,5,,6,4,,25,,4,4,,3,5,,
47,,5,5,,6,3,,25,,4,4,,3,6,,
47,,5,6,,3,4,,25,,4,3,,6,5,,
47,,5-1-3[8:3],6-8-4[16:5],,,,,,,,,,,,,
26,,4,3,,5,4,,37,,5,6,,4,5,,
14,,2,3,,5,6,,85,,7,6,,4,3,,
25,,4,4,3,3,5,,26,,17,,8x,{32}B8,C,B4,,,,
{16},,2b/6b,,4b/8b,,2b/6b,,4bxv1[8:1]b/8bxv5[8:1]b,,,,8bx^3[8:1]/4bx,Cf,,,
8^5[8:1]/4v1[8:1],,,,84,,,,24,,3,,57,,6,,
3/4-1[8:1],,,,4/5-8^2[16:5],,,,5/6h[4:1],,,,,,,,
{32}3h[8:1]/E8,B7,B6,,,,,,6h[8:1]/E2,B2,B3,,,,,,3h[8:1]/E8,B7,B6,,,,,,6h[8:1]/E2,B2,B3,,,,,,
{16}3/8w4[8:1],,,,8pp3[8:3]*^5[4:1],,,,8,,,,,,,,
{32}4/5p1[8:1],6,7,,,,,,58,7,6,,,,,,24,,,,3,,,,46,,,,7,,,,
{16}2/8-3[12:1],,,,8-5[12:1]/2-5[12:1],,,,8/2-7[12:1],,,,26,,,,
13,,13,,8x,7x,6x,,53,,53,,6x,7x,8x,,
1h[8:1]/2,,5,,2h[8:1]/1,,6,,1h[8:1]/2,,5,,2h[8:1]/1^4[8:1],,6,,
1^6[8:1]/5v2[8:1],,,,15,,,,24,,3,,57,,6,,
3/4-1[8:1],,,,4/5-8^2[16:5],,,,5/6h[4:1],,,,,,,,
{32}3h[8:1]/E8,B7,B6,,,,,,6h[8:1]/E2,B2,B3,,,,,,3h[8:1]/E8,B7,B6,,,,,,6h[8:1]/E2,B2,B3,,,,,,
{16}3/8w4[8:1],,,,8v6^8[16:5]*v3^1[16:5],,,,8,,,,,,,,
{32}1-5[8:1]/8-4[8:1],27,36,,,,,,1^4[8:1]/8,,,,,,,,1^6[8:1]/5p1[8:1],,,,,,,,1^4[8:1],,,,,,,,
{16}1/5-8[8:1],,,,5/4-1[8:1],,,,4/6-3[8:1]*v1[8:1],,,,6,,,,
82,,73,,4,6,4,,71,,62,,5,3,5,,
4,6,4,6,3,7,3,7,8w4b[8:1]/2,,64,,{32}8b,B8,Cf,B5/B4/B3,,,,,
{16}7-5[8:1]/2,,,,8-4[8:1]/7,,,,1-5[8:1]/8,,,,12,,,,
1^3[8:1]/8-3[8:1],,,,1q4[8:3]/8qq5[8:3],,,,18,,,,,,,,
3-1[8:1]/6,,,,4-8[8:1]/3,,,,5-1[8:1]/4,,,,56,,,,
5^7[8:1]/4^2[8:1],,,,5-3v8[8:3]/4-6v1[8:3],,,,54,,,,,,,,
2-6[8:1]/7,,,,1-5[8:1]/2,,,,1/8-4[8:1],,,,78,,,,
1p5[8:1]/8^6[8:1],,,,1^3[8:1]/8q4[8:1],,,,1p5[8:1]/8^6[8:1],,,,18,,,,
24,,36,,7,5,6,,35,,14,,2,4,3,,
{32}6h[8:1],,,,4x,3x,2x,,6h[8:1],,,,4bx,3x,2x,,6h[8:1],,,,4bx,3bx,2x,,6hb[8:1],,,,4bx,3bx,2bx,,
{16}
7-1[8:1]/5-1[8:1],,,,57,,,,24,,3,,57,,6,,
2/4-1[8:1],,,,4-6v7[4:1]/6,,,,2/4b-1[8:1],,,,,,,,
8-4[8:1]/2-4[8:1],,,,28,,,,75,,6,,42,,3,,
7/5-8[8:1],,,,5-3v2[4:1]/3,,,,7/5b-8b[8:1],,,,,,,,
1-5[8:1]/7-5[8:1],,,,71,,,,24,,3,,57,,6,,
2/4-7[8:1],,,,4b/6-2[8:1],,,,6b/3-8[8:1],,,,3b/7,,,,
28,,28,,3,5,4,,17,,17,,6,4,5,,
28,,34,,17,,6,5,6w2b[8:1],4,5,,6b,,,,
2/8h[8:1],,6,,7/1h[8:1],,3,,25,,4,3,5,4,6,,
5/7h[8:1],,3,,2h[8:1]/4,,6,,4,5,3,4,3,5,4,,
5/6h[8:1],,8,,2h[8:1]/4,,8,,57,,6,4,5,3,4,,
62,,35,35,,4,,7/5h[16:3],,,6,6,5,5,4,4,
5b/3b,,2,,6b/4b,,7,,8b/2b,,3,4,2,5,3,,
4b/6b,,7,,3b/5b,,2,,7,5,6,5,5,5,4,,
3b/2b,,6b/5b,,8b/7b,,3b/4b,,1b/2b,,3,4,3,2,3,,
8h[32:1],,71,17,,26,,4/8h[2:1],,E4,E3,E2,E1,E8,E7,E6,
{32}4x-1[8:1]*-7[8:1],,,,,,,,,,,,,,,,8,7,6,,,,43,,,,,,68,,,,
1,2,3,,,,56,,,,,,1bx/Ch[8:3]f,,,,
,,,,,,,,,B6/B7/B2/B3,E7/E3,A6/A7/D7/D3/A2/A3,,,,,
E
