&title=元祖!バンドリちゃんのテーマ
&artist=香澄×兰×彩×友希那×心×真白×LAYER×灯×Doloris×阿拉蕾
&first=0.034
&lv_5=1
&des_5=
&inote_5=
(211)
E
&lv_6=14+
&des_6=Crazy 7Y.
&inote_6=
(211){4},{1},{4},,,{24}8h[8:1]/1-4[8:1],
2,3,4,,,{8}7,7h[8:1],,5,4,3,
{24}1h[8:1]/8-4[8:1],7,6,5,,,{8}2,2h[8:1],,3,4,5/6,
{24}1/7-2[8:1],2,3,4-1[8:1],,,{8}7,4,{4}8h[8:1],{8}7,6,
{16}5b,4,5,4,6,3,6b,3,7,2,7,2,8b,1,8,1,
{1}8bw4b[4.5498##0.1422],
{8},,,,,,,,6b/4b,
3b/5b,7b/4b,2b/5b,,5b/6b,4b/7b,1b/2bh[4:1],
{24},,,3,4,5,6,7,8,1,2,3,4,5,6,7,8,1,2,3,4,5,6,7,
{8}8b,,,7,,B2,B3,B4,
,B7,{4}B6/B5,{16}1,2,3,4,1/5,8,7,6,
{8}5/2,5/2<7[8:1],,2/5h[8:3],,,,,3/5,
3/5<8[8:1],,5/3h[8:3],{24},,,,,,,1,2,3,4,5,
{4}6/1-5[8:1],1b/7,{8}6-1[8:1],4-1[8:1],6,4,
,7-5[8:1],2,7-2[8:1],3V58[4:1],7,{4}3,
{8}7bxh[4:7],,,B3/E3/A3,,,,,,,,,{2}B4,
{8}2h[4:7],,,B6/E7/A6,,,,,,,,,{4}B5,
8-6[8:1],
3/8-4[8:1],3/8-6[8:1],3/8-4[8:1],3/8b,
{8}1-3[8:1],5,1,5,1-5[8:1],6,1b,6,
4/8<6[8:1],4,3/8-4[8:1],3,5/8-6[8:1],5,3/8b,3,
{4}B2f/E3f/B3f/A2f/A3f,A7f/B7f/E7f/A6f/B6f,B8f/E1f/B1f/A8f/A1f/Cf,B6f/B5f/B4f/B3f/B2f/B1f/B8f/B7f,
{8}6b/5b,6/4,6/3,6/2,{16}6,2,6,2,{8}6,8/4,
4b/5b,4/6,4/7,4/8,{16}4,8,4,7,{8}4,2/6,
8/1,7,1/8,2,8b/1b,7b,1b/8b,2b,
7/1,6,2/8,3,7/1,5,2/8,4,
{4}6>3[8:1]*pp1[2:1],6b,{8},2,3,4,
{4}5b-2[8:1],5/1b-5[8:1],1/4b-1[8:1],4/7b-4[8:1],
7/3b-7[8:1],3b,{8}6-1[8:1],8-4[8:1],6,8,
,7pp4[2:1],6/5,7,2,2,3,3,
{4}2<7[8:1]/5-1[8:1],5b/2b,{8}6-4[8:1],3-8[8:1],6,3,
{16},,5-8<6b[2:1],3,{8}4,5/3,1b,2b,3b,4h[2:3],
,D1,{4}D8,B7/E7,B6/A6,
{8}8,8-4[8:1],,8b,A3/B3/E3,A6/B6/E7,A2/B2/E2,A7/B7/E8/1x-4[8:1],
,6,{4}6,5-7[8:1],5,
{8}4>1[8:3],1b,8b,7b,6b,5b,{4}8h[8:1]/4h[8:1],
{16}8,4,8,4,8,4,8,4,1,5,1,5,2,6,2,6,
3,7,3,7,4,6,4,6,5,5,5,5,5>7v4[4:7],5,5,5,
{1}5b,
{4},,,,6/5>1V35[2:3],
6,6,6,
7,7,7,7,
8b-6[8:1],8b/2b-8b[8:1],4b-2[8:1],4b/6b-4b[8:1],
6b/1b-4[8:1],1b/7b-2b[8:1],7b/5b-1[8:1],5b/8b,
{8}7v4[8:1],8,1,2<1-7[8:1],3,4,5v2[8:1],6,
7,8<7-5[8:1],1,2,3>8[8:1],4,5b,6b,
{4}6<1[8:1]/5>2[8:1],A6f/E6f/A5f,3>8[8:1]/4<7[8:1],A3f/E4f/A4f,
2>5[8:1]/1<6[8:1],A2f/E2f/A1f,7<4[8:1]/8>3[8:1],A7f/E8f/A8f,
{1}1bh[2:5],
{4},,,,8b,
8b,8b,{8}7b/2b,{32}1/8,2,3,4,
5,6,7,8,1,2,3,4,5,6,7,8,1,2,3,4,5,6,7,8,1,2,3,4,5,6,7,8,1,2,3,4,
5,6,7,8,1,2,3,4,5,6,7,8,1,2,3,4,5,6,7,8,1,2,3,4,5,6,7,8,1,2,3,4,
5,6,7,8,1,2,3,4,5,6,7,8,1,2,3,4,5,6,7,8,1,2,3,4,5,6,7,8,1,2,3,4,
5,6,7,8,1,2,3,4,5,6,7,8,1,2,3,4,5,6,7,8,1,2,3,4,{4}5b-1[8:1]/7b-1[8:1],
7b-3[8:1]/5b-3[8:1],5b-1[8:1]/7b-1[8:1],7b-3[8:1]/5b-3[8:1],5b/7b,
8pp7[4:3]/5-8[4:1],5b,,,,6h[4:1],
4h[4:1],2h[4:1],
{2}8h[4:1],{8}8b,1b,2b/7b,{32}8/1,7,6,5,
4,3,2,1,8,7,6,5,4,3,2,1,8,7,6,5,4,3,2,1,8,7,6,5,4,3,2,1,8,7,6,5,
4,3,2,1,8,7,6,5,4,3,2,1,8,7,6,5,4,3,2,1,8,7,6,5,4,3,2,1,8,7,6,5,
4,3,2,1,8,7,6,5,4,3,2,1,8,7,6,5,4,3,2,1,8,7,6,5,4,3,2,1,8,7,6,5,
4,3,2,1,8,7,6,5,4,3,2,1,8,7,6,5,4,3,2,1,8,7,6,5,{4}4bx-6[8:1]/3bxv6[8:1],
3bx-1[8:1]/4bxv1[8:1],4bx-6[8:1]/3bxv6[8:1],3bx-1[8:1]/4bxv1[8:1],3bx/4bx,
{1}7bpp5[4:3]/6bqq8[4:3],
{4},2b/1h[4:1],2h[4:1],3h[4:1],
{2}4h[2:1],{8}5h[8:3],,,4b,
4b/5b,3,6/2,8,7/3,5,6/4,1,
4,5-8[8:1]/3-8[8:1],,3b/5b,,B7/B8,{4}B7/B8,
{8}2-4[8:1],7-5[8:1],2,7,1-5[8:1],8-4[8:1],1,8,
3-8[8:1],6-1[8:1],3,6,4-2[8:1],5-7[8:1],4,5,
8b,1b,2b,3b,4b,5b,6b,7b,
2b<7-3<6b[2:1],,,,,B8/E8,{4}B8/E8,
{8}4-7[8:1]/3-7[8:1],2/5,{4}3/4,{8}1/8-4[8:1],7,8/1-5[8:1],2,
7b,6b,{4}7b-4[8:1],7b/2b-6[8:1],2b/5b<4b[4:7],
{1}A5f/D5f/A4f,
,{24}1b/7b-4[8:1],
6,5,4,,,{8}2,2,8/1,7,6,5/4,
{24}8b/2b-5[8:1],3,4,5,,,{8}7,7,1/8,2,3,6/4,
{24}3b/5b-1[8:1],6,7,8,,,{8}2,2,8,3,7,4,
{16}6b,5,6,5,8,1,8b,1,4,3,4,3,5b,2,6,1,
{1}8bpp3[2:3]/7bqq4b[2:3],
{8},,,,,,,,6b/5b,
7b/8b,1b/2b,4b/3b,,7b/4b,5b/2b,8b/1bh[4:1],
{24},,,8,7,6,5,4,3,2,1,8,7b/3b,4,5,6,7,8,1,2,3,4h[2:1],,,{8}5,
6-1[8:1],7,6,2,3>8[8:1],4,3,
,5b/6b,{4}7b/4bh[4:1],{16}8,7,6,5,8/4,1,2,3,
{8}4/7,4/7>2[8:1],,7/4h[8:3],,,,,6/4,
6/4>1[8:1],,4/6h[8:3],{24},,,,,,,8,7,6,5,4,
{4}3/8<4[8:1],8b/2,7/1>5[8:1],1b/7,
{8}7b/8b,7b/8b,7b/8b,6b/1b,,7b/2b,1bx/8bx,{32}1b/8bz4b[8:1],7b/2b,6b/3b,5b/4b,
E
