&title=私は、わたしの事が好き。
&artist=HoneyWorks/かぐや(cv.夏吉ゆうこ)
&first=0.335
&des=Ayuri
&des_5=Ayuri
&lv_5=14
&inote_5=(193){4}3,4,5,{8}6,{16}4,5,
{4}3bpp1[4:3],A6,A7,A8,
6qq8[4:3],A3,A2,A1,
1qq2[4:3],A7,A5,C,
5qq6[4:3],A3,A1,C,
2h[8:1],{8}4,{16}4,3,{8}5,5,{4}1h[8:1],
{8}7,7,5,{16}5,6,{8}4,4,8,8,
{16}2,7,2,7,2,7,2,7,2,7,2,7,{4}1s5[8:1]/8z4[8:1],
1b/8b,6-1[8:1]/2-5[8:1],2/6,{16}A8/A4,A7/A3,A6/A2,A5/A1,
{4}Cf,3b>7[4:1],7>3[4:1],{8}5,6h[8:3],
,,4,5,3,4,{4}2-5[8:1]*-7[8:1],
,6b<2[4:1],2<6[4:1],{8}4,3h[8:3],
,,5,4,6,5,7,{16}1,8,
{4}2>5[8:1]*<7[8:1],2,{8}6,6,3/5,5/3>8V24[8:3],
,3,{16},,,,,,6,4,5,3,{8}4,
{4}2-6[8:1],2/1-5[8:1],1/8-4[8:1],{8}8,3h[4:1],
,4,4,2/6,{16}1,8,7,6,5,4,3,2,
{8}1>4[8:1],4>1[8:1],{4}1,8-5[8:1]*-3[8:1],8,
{8}4,3,5,4,6/3,B7/E7,{4}E3/B2,
{8}8<5[8:1],5<8[8:1],{4}8,1-4[8:1]*-6[8:1],1,
{8}5,6,4,5,3/6,B2/E3,{4}E7/B7,
{2}2>5[8:1]/6<1[8:1],{8}2,1,8,7/2>7[4:1],
,,,,3,4,5,6/3>6[4:1],
,,,,5/4,3/6,2/7,8-4[8:1]/1-5[8:1],
,1>4b[8:1]/8<5b[8:1],,1/8,,E6/E4,E7/E3,E8/E2,
{4}8bx/1bx-5[8:1],{8}7/1-3[8:1],7,{4}1/4V61[4:1],4,
{8}3,3,1/2,1/2,{2}8-4[8:1],
{4}5-1[8:1],{8}3/5-7[8:1],3,{4}5/8>5[4:1],8,
{8}7,7,5/6,5/6,{2}4-8[8:1],
{4}1>5[4:1],5<1[4:1],{8}7h[4:1],,,2,
{4}8<4b[4:1],4>8b[4:1],{2}2h[4:1],
{8}3/7,{16}5,4,{8}6,2,6/2,{16}4,5,{8}3,7,
1-5[8:1],8,{4}1,{32}6h,7h,8h,1h,2h,3h,4h,5h,{4}6h,
1q5[4:1],{8}5-3>1[4:1],6,{2}7h[4:1],
{4}8p4[4:1],{8}4<1[4:1],3,{2}2-6b[8:1],
{4}5/8-4[8:1],{8}3,3,{4}4x/1-5[8:1],{8}6,6,
4,7,2,5,4-8[8:1],6,{24}A8,A7,A6,A5,,,{4}4/1-5[8:1],
{8}6,6,{4}5x/8-4[8:1],{8}3,3,
5,2,7,4,5-1[8:1],3,{24}A1,A2,A3,A4,,,{8}3xh[4:1],
5,5,{16}6,4,{8}6,2,{4}3/5,
{8}6h[4:1],4,4,{16}3,5,{8}3,7,6/4,{16}5,4,
{8}5,{16}3,4,{8}3,{16}6,5,{8}6,4,3,5,
{16}4,5,4,5,4-8[8:1],5,4,5,{8}4b,A8f,{24},,,,,,,,,,,,,,,,,,1,
2,3,4,5,6,7,8,1,2,3,4,
{8}5-2[8:1],1-4[8:1],5,1,8,8<4V28b[8:3],{32},,,,A8,A1,A2,A3,
{4}A4,4,{16}7,5,6,4,5,3,4,2,
{8}4-7[8:1],8-5[8:1],4,8,1,1>5V71b[8:3],{32},,,,A1,A8,A7,A6,
{4}A5,5xh[4:1],3xh[4:1],1w5[8:1],
A1f,7/3,{8}2>5[8:1],5<8[8:1],{4}8>3[8:1],
{8},,5,4,6,3-7[8:1],5,2h[8:3],
,,{4}1<3[4:1],{8}4,3,2,1<3b[4:1],
{16},,,,,,,,8,2,7,1,5,3,6,4,
{4}8V64[4:1],4-7-5[4:1],{8},1>4b[8:1],,1h[4:1],
,,8/4,7/3,6/2-6[8:1],5/1,,,4V28[4:1],
6,{4}8-3-1[4:1],{8},5<8b[8:1],,5h[4:1],
,,4/8,3/7,2/6-2[8:1],1/5,{16},,3,4,
{2}5w1[8:1],{8}7/3,3/7,6/4,{16}2,4,
{4}3>8[8:1],{24}7,6,5,4,,,{4}2xh[8:1]/6xh[8:1],{8}3/5,{16}7,5,
{4}6<1[8:1],{24}2,3,4,5,,,{8}6-2[8:1],2-7[8:1],{4}6,
{8},3-7[8:1],7-2[8:1],3,{16},,6,5,{4}4,
{16}2b,1,2,1,3,8,3,8,5b,6,4,7,5,6,4,7,
3b,4,3,4,2,5,2,5,8b,7,1,6,8,7,1,6,
3b,5,4,6,2b,8,1,7,2b,6,3,5,{4}4bw8b[8:1],
,6-2[8:1],{16}1b,2,3,4,1/5,8,7,6,
{4}Cf/5b>2[8:1]*<8[8:1],5,{8}1-5[8:1],5-1[8:1],{16},,,,,,8,
7,{8}6,{16}2,3,{8}4,1/8,3/6,2/7,
{4}4>1[8:1]/5<8[8:1],4b/5b,{8}3-8[8:1],6-1[8:1],3,6,
,5/4,4/5,{16}7,8,{8}7,{16}2,1,{8}2,{16}3/6,2/7,
{4}8<5[8:1]/1>4[8:1],8b/1b,{8}7-4[8:1],2-5[8:1],7,2,
,1/8,8/1,{16}3,4,{8}3,{16}6,5,{8}6,{16}7/2,6/3,
{4}5/4>8[4:1],8<4[4:1],4>8b[4:1],8<4b[4:1],
{16},,,,,,,,6,7,8,1,5,4,3,2,
1w5[8:1],5,3,7,{32}1b,B8/B7/B6/E6/B5/B4/B3/B2/B1/E2/Cf/E7/E3,
E
