&title=えれくとりっく・えんじぇぅ
&artist=Giga/ヤスオP/鏡音リン/鏡音レン
&first=0.071
&des=电流相生
&lv_6=13+
&des_6=电流相生
&inote_6=
(150){4},,,,,,,E2,
B3,E6,B7,B3,
E1,E7,C,E6,
B4,E2,B8,E5,
E3,B4,C,{8}5,6,
{4}7h[4:1],{8}4,3,{4}2h[4:1],{8}1,8,
7h[8:1],3h[8:1],6h[8:1],4h[8:1],{4}5h[8:3],6V82-4[4:3],
{1}Ch[1:1],
{4}5w1[8:1],5s1s5b[8:3],,,6-3[8:1],
{8}3-6[8:1],2,{4}1-4[8:1],{8}4-1[8:1],5,
6,7,8-5[8:1],1,{4}2h[8:1],{8}3x/4x,2x,
{4}5/1-5[8:1],{8}5-1[8:1],6,{4}7h[8:1],{8}6,5,
4-8[8:1],5-7[8:1],4,5,1-5[8:1],8-4[8:1],1,8,
{4}3>8[8:1],{8}8>3[8:1],7,{4}6>3[8:1],{8}3<6[8:1],2,
1,8,7V58[4:1],5,{4}8-4[8:1],{8}4x,3x,
{4}5/2<8[8:1],{8}7<5[8:1],6,4>2[8:1],3,4qq1[16:7],5,
4,5,6,7,{4}8w4[8:1],8,
5-8[8:1]/1pp1[4:1],5/1<2[16:7],E7f,1<2[16:7],
5,1<3b[8:3],E7f,{8}8,7,
{4}6pp4[16:7]/2>5[8:1],6/2pp8[8:3],A2f,6qq6[4:1],
2/6pp6[4:1],4x>5[4:1],{8}4x,{24}A8,D8,A7,{4}4-7[8:1],
3/4-1[8:1],6/4-8[8:1],4/8-4[8:1],2-4[8:1],
{8}7-5[8:1],7,1-3[8:1],1,8,6,4,1,
2/6,4,3/7,5,{16}3-5[8:1],4-6[16:1],{8}2,{4}3/4,
{8}6/5,4/3,2/1s5b[32:5],7/8z4[32:1],{4}1bx/8bx,5x/3x-1[8:1]*-7[8:1],
3b-5[8:1],{8}3/8-2[8:1]*-4[8:1],7,{4}8-6[8:1],{8}8/2pp5[8:3],1,
2/4,5,7-4[8:1]*-3[8:1],8,{4}7,1s5[16:3],
1/5,{8}6pp4[4:1],2,{4}6/3qq5[4:1],3,
{8}6,7,8v5[8:1]/2v5[8:1],1,{4}2/8,{8}4-2[8:1]*-8[8:1],3,
{4}4-6[8:1],{8}4/1-5[8:1],8,{4}1/7-3-5[4:1],{8}7/2-6[8:1],1-7[8:1],
2-4[8:1],1-5[8:1],2-6-4[4:1],1,{4}2,{8}8,7,
6/4pp4[4:1]*qq4[4:1],3/5,{4}4-8[8:1],{8},,7/1,6/2,
{4}5b-8[8:1]/3b-7[8:1],3b/5b-1[8:1]*-2[8:1],5b,{16}8x,7x/1x,2x/6x,5x/3x,
{8}4x-8[8:1],6,{16}4,5-7[16:1],,,{8}5-1[8:1],{16}4-2[8:1],4,{8}5,4,
7h[8:1],8h[8:1],{16}6x-4[8:1],5x,7x-3[8:1],8x,{8}6-1[8:1],7,6,2,
3>8[8:1],4,3,4-8[8:1],5,4,{32}B7,B6,B5,B4,B3,B2,B1,B8,
{8}4x-6[8:1],7,4x-2[8:1],8-4[8:1],{2}4xz8[16:3],
{32}3x,4x,,,,,,,5x/3x-7[8:1],4x,,,,,,,{8}3/7-3[8:1],6,{4}5,
{8}2/4,3,5/4,6,5/7,3,{16}A8/D8,B7/E7,B5/E6,D5/A4,
{8}2>4>3<4>3<5-1[8:3],6h[4:1],{16},,,,6,7,{8}8,8/2-5[8:1],1/7-4[8:1],
2b,7b,{16}3,6,1,8,2,7,4,5,{4}1>4[8:1],
{24}1b<6[8:1]/5bq2[8:1],6,7,8,,,{4}1/5,{16}5/1-5[8:1],2/6,{8}3/7-4[8:1],1,7,
3pp5[8:1],5p1[8:1],3,7h[2:1],,8,6-1[8:1],8,
6/2,{16}2,4,3,5,4,6,5,7,4,6,3,5,2,4,
1b,8,1,8,3,5,4,6,8b,7,8,7,5,6,3,4,
{4}1b-5[8:1],{8}1/6-4[8:1],7,{4}8-4[8:1],{8}3-6[8:1],2,
1,8qq3[8:3],7,6h[8:1],,5,6,7,
8/1,{16}7,8,{8}6-1b[8:1],3-5-2-8[8:3],6,3,7-4b[8:1],6,
7b,{16}8x,7x,6x,5x,4x,3x-7[16:3],{4}5x/2xh[4:1],C,
1-4[32:41],E5/B5/B4,B6/E7/B7,B8/B1/E1,
1-4b[8:1],1,5<1b[16:3],5,
{8}3h[4:1],{16}E3,E4,{8}E5h[8:1],{16}E2,C,{8}E6h[8:1],{16}D1,D8,{8}D7h[8:1],C,
{16}A5/E5,A4/E4,E3/A3,A2/E2,A1/E1,A8/E8,A7/E7,A6/E6,{24}E3,E2,E1,E8,E7,E6,Cf/E5,E4,E3,E2,,,{4}8-5[32:41],
B5/B4/E5,B3/B2/E3,B8/B1/E1,
8-5b[8:1],8,4>8b[16:3],4,
{8}7h[8:1],6h[8:1],5h[8:1],4h[8:1],8h[8:1],6h[8:1],5h[8:1],2h[8:1],
7h[8:1],5h[8:1],3h[8:1],1h[8:1],{16}8,2,4,3,7,5,8,1,
{32}7,6,5,4,3,2,1,8,7,6,5,4,3,2,1,8,{48}1x/7,2x,3x,4x,5x,6x,7x,8x,1x,2x,3x,4x,{4}5x-1b[8:1]*qq5[8:15],
{32}5bpp5[8:13],Cf,{1},{4},,,{16},,,{2}E3h[4:3],
{4}E7h[4:1],Cf,
{32}2b,E3,{16}B3,{32}7b,E7,{16}B6,{32}1bs5b[8:1],E2,{16}B2,{32}8b,E8,{16}B7,{32}1b,Cf,,,,,,,{8}4x/8x-6[8:1]*-4[8:1],6x/2x,
{4}8b-2[8:1],{8}8/5-1[8:1],4,{4}5/3-8-4[4:1],{8}3/6-2[8:1],5-1[8:1],
6-8[8:1],5-3[8:1],6qq3[8:3],5,{4}6,{8}2,1,
8/4,6/2,4/5,8/3,{4}5/1qq1b[4:1],{8}7/1pp1b[4:1],6,
{4}5bpp5[4:1],5b>6[4:1],Cf,{8}3,2,
{24}5/1-5[8:1],2/6,3/7,4/8,,,{8}1/4<7[8:1]*>1[8:1],3,{4}4-8[8:1],{8}4/6pp3[8:3],7,
6/1,2,4-1[8:1]*-8[8:1],5,{4}4,{8}7s3[16:3],8,
{4}7/1<6[8:1],{8}1/4qq5b[4:1],5,{4}4/6pp5b[4:1],6,
{8}2-6[8:1],4,2/8>5[16:3]*V24[8:1],7,{4}8,{8}6,5/7,
{24}4/8pp4[8:3],7/3,6/2,5/1,,,{8}8/5<8[8:1],6,{4}5>2[8:1],{8}5/1,7,
{24}2,3,4,7,6,5,{32}1-5-3[4:1],2,3,4,8,7,6,5,{4}1b,{8}8,6,
4/3,2/1,6/5>2[8:1],4/7,{4}6/5qq5[4:1],5pp4[8:3]/2qq4<3b[8:7],
{2}A5f/A2,E8f/B8/B7,
{8}6b-8[8:1],5,6/4,3,2/1-5[8:1],7-1[8:1],1/6,7-5[8:1],
,7/3-1[8:1],4-7-5-1[8:3],3/5,4,8,1,2,
3-1[8:1],4,3/5,6,7/8-4[8:1],2-8[8:1],8/3,2-4[8:1],
,2/6-8[8:1],5-1-3-7[8:3],6/4,5,7,6,5,
5/8,1,3/7,4,5/6,{16}7,8,6-1[8:1],8,{8}7,
6/5-2[8:1],4,5/6-1-4-7[8:3],7,6/5,4,3,2,
1/8,7,2/1,3,6/8,5,4/7-3b[8:1],2-5[8:1],
7-4b[8:1],2-6[8:1],7,2,{16}8,1,7,2,6,3,5,4,
{8}B5f/B4/Ch[4:7],{16},,,,,,,,,,,,E4,B3,
{1}B2,
{8}E7/Ch[4:7],{16},,,,,,,,,,,,E6,B6,
{4}B7,{16},,,,,,,,E6,B5,B4,E4,
E
