&title=うそつきマカロン
&artist=暴飲暴食P
&first=0.12
&des_1=凝雪
&des_2=凝雪
&des_3=凝雪
&des_4=凝雪
&des_5=凝雪
&lv_5=12+
&des_6=凝雪
&des_7=凝雪
&des=凝雪
&inote_5=(110){1},
{24}3h[8:3]/5h[8:1],,,,,5h[8:1],,,,5,,,{8}3/5,4,5/6,7,
{24}6h[8:3]/4h[8:1],,,,,4h[8:1],,,,4,,,{8}6/4,5,4/3,2,
{24}3h[24:5]/5h[8:1],,,,,6h[8:1],,,,5/7,,,{8}1/8,2,3/4,5,
{16}6h[8:1]/4h[8:1],,,,5h[8:1]/3h[8:1],,,,{12}3h[12:1],4h[12:1],5h[12:1],{4}6b,
{16}7-5[8:1]/5,,,,4,,,,6-4[8:1]/3,,,,2,,,,
{16}1-3[8:1]/3,,,,4,,,,2-4[8:1]/5,,,,6,,,,
{16}7-5[8:1],,,,1/7,,,,2-4[8:1],,,,2/8,,,,
{4}6>3[4:1],3>8[4:1],8<5[4:1],C,
{16}3h[16:3],,,4,3,,2/4,,3,,4,,5,,6x,,
{16}6h[16:3],,,5,6,,7/5,,6,,5,,4,,3x,,
{8}2h[8:1]/4h[8:1],,3h[8:1]/5h[8:1],,5h[8:1]/7h[8:1],,4h[8:1]/6h[8:1],,
{4}3<6[4:1],6v1[4:1],8h[4:1],,
{8}2qq5[4:1]/8,,2/4,,6bh[8:1],,5/7<4[4:1],,
{8}4,3,2h[8:1],4,1bx>4[8:1]/8bx<5[8:1],,,,
{8}4bxh[8:1]/5bxh[8:1],,2bxh[8:1]/4bxh[8:1],,5bxh[8:1]/7bxh[8:1],,Ch[8:1],,
{16}2h[8:1],,4,3,5,,4/6,,2>5[8:1],,6,,2,,7,,
{8}7pp4[4:1]/1,,7/5,,3bh[8:1],,4/2>5[4:1],,
{8}5,6,7h[8:1],5,8bx<5[8:1]/1bx>4[8:1],,,,
{16}3/4,,3,4,2,,6,5,6,,5/7,,4/7-3[8:1],,1,,
{16}7,,2,,Cf,,,,1xs5[4:1]/8xz4[4:1],,,,,,,,
{8},Ch[8:3],,,,,1b,,
{32}6h[8:1]/4,,,,5,,6,,4h[16:1],,,,5/3,,,,{8}6/4,5,4/3,2,
{32}3h[8:1]/5,,,,4,,3,,5h[16:1],,,,4/6,,,,{8}3/5,4,5/6,7,
{32}6h[8:1]/4,,,,5,,6,,4h[16:1],,,,5/3,,,,{8}6/4,5,4/3,2,
{16}3h[8:1]/5h[8:1],,,,4h[8:1]/6h[8:1],,,,2h[8:1]/4h[8:1],,,,5h[8:1]/7h[8:1],,,,
{4}3h[1:2],E4,,E4,,E5,,E5,6h[1:2],E6,,E6,,E5,,E5,
{4}3h[8:1],E4/3h[8:1],3h[8:1],B4/3h[8:1],4h[8:1],B5/4h[8:1],4h[8:1],E6/4h[8:1],
{4}6h[8:1],E6/6h[8:1],6h[8:1],B5/6h[8:1],5h[8:1],B4/5h[8:1],5h[8:1],E4/5h[8:1],
{16}6h[16:3],,,5,6,,7/5,,6,,5,,4,,3x,,
{16}3h[16:3],,,4,3,,2/4,,3,,4,,5,,6x,,
{8}7h[8:1]/5h[8:1],,6h[8:1]/4h[8:1],,4h[8:1]/2h[8:1],,5h[8:1]/3h[8:1],,
{4}6>3[4:1],3v8[4:1],{12}1bx,1bx,1bx,1bx,,,
{8}7pp4[4:1]/1,6,7/5,,3bh[8:1],,4/2v5-3[4:1],,
{8}5,6,7h[8:1],5,8bx<5[8:1]/1bx>4[8:1],2/7,8/1,,
{8}5bxh[8:1]/4bxh[8:1],,7bxh[8:1]/5bxh[8:1],,4bxh[8:1]/2bxh[8:1],,Ch[8:1],,
{16}7h[8:1],,5,6,4,,5/3,,7<4[8:1],,3,,7,,2,,
{8}2qq5[4:1]/8x,3,2/4,,6bh[8:1],,5/7v4-6[4:1],,
{8}4,3,2h[8:1],4,1bx>4[8:1]/8bx<5[8:1],2/7,1/8,,
{16}6/5,,6,5,7,,3,4,3,,4/2,,5/2-6[8:1],,8,,
{16}2,,7,,Cf,,,,8xz4[4:1]/1xs5[4:1],,,,,,,,
{8},Ch[8:3],,,,,8b,,
{24}6/4,,,{16}3,5,{24}4h[8:1],,,7,,,{8}6/4,5,4/3,2,
{24}3/5,,,{16}6,4,{24}5h[8:1],,,2,,,{8}3/5,4,5/6,7,
{24}6/4,,,{16}3,5,{24}4h[8:1],,,7,,,{8}6/4,5,4/3,2,
{16}3h[8:1]/5h[8:1],,,,4h[8:1]/6h[8:1],,,,
{16}3h[8:1]/5h[8:1],,,,4h[8:1]/6h[8:1],,,,
{24}6/4,,,{16}8,7,{24}1h[8:1],,,7,,,{8}2/8,3,4/5,6,
{24}3/5,,,{16}1,2,{24}8h[8:1],,,2,,,{8}7/1,6,5/4,3,
{24}1/2q5[4:1],,,{16}8,7,{24}6,,,7,,,{8}8,5/7,4/6,3/5,
{4}2>5[4:1],5<8[4:1],8>3[4:1],5,8w4b[4:3],
E
