&title=Welcome to the Mosh Pit
&artist=lapix
&first=0
&des=飞越大水坑
&lv_5=14
&inote_5=(172){4},,,,
{4},,,{16}1,8,1,8,
{8}1bV35[16:5]*V75[16:5],,,,,,,2b-4[8:1]/6b-4[8:1],
,,,7bV53[16:5]/3b,,3,2,1bV35[16:5],
,,,,6,6,1h[8:2],,
4b,,3h[8:1],5b,,{16}4,6,5-1[8:1],,,,
{8}7bV53[16:5],,2h[8:2],,,,,1b-7[8:1]/6h[8:2],
,,,4b/5h[8:2],,3,2,1b-3[8:1]/4b-6[8:1],
,,,,5/7,6,4,3,
2b/4b,,6,5b/7b,,{16}4,5,2-4[8:1],,,,
{4}2b-5[8:1]/7,2b/7-4[8:1],7b/3h[8:2],6-4[8:1],
6b-3[8:1]/2,6b/2-5[8:1],2b/7h[8:2],1-7[8:1],
1b-4[8:1]/6,1b/6-3[8:1],2h[8:2]/6b,4-6[8:1],
4b-8[8:1]/3,4b/3-7[8:1],3b/6h[8:2],8,
{8}1/4-6[8:1],2,3,,2/5-7[8:1],3,4,,
3/6-8[8:1],4,5,,4/7-5[8:1],3,2,,
3/4,3,3/2,3,3/5,3,3/1,3,
3/4,5/6,7/8,6/1,2-5[8:1]/5-8[8:1],,2b/5b-1[64:1],,
{16}7b-5[8:1],,,,3V57[16:3],,,2h[16:1],
,,,,3-5[8:1],,,,
6-3[8:1],,,,2,,,1h[16:1],
4,,6,,3,3,3,,
7b-4[8:1],,,,4V68[16:3],,,2,
2-5[8:1],,,,2,,,,
{8}6/4,7,5/3-5[8:1],2,3-1[8:1]/7,,3V52[8:2]/4,,
{8}8b-6[8:1],,8V24[16:3],,5-2[8:1],,7-4[8:1],7,
1-5[8:1],,6V42[16:3],,7h[384:1],7h[384:1],7h[384:1],7h[384:1],
1h[8:1],6h[8:1],5h[8:1],4h[8:1],3h[8:1],2h[8:1],1s5[16:5]*z5[16:5],,
,,,,{16}4/6,,5,3,6,2,7,1,
{8}8,,3h[16:1]/4,3h[16:1],3h[16:1]/6,3h[16:1],3h[16:1]/4-7[8:1],3h[16:1],
4/3,,6h[16:1]/5,6h[16:1],6h[16:1]/2,6h[16:1],6h[16:1]/5-1[8:1],6h[16:1],
5/6,7,2h[16:1]/8,2h[16:1],2h[16:1]/4,2h[16:1],2h[16:1]/7-4[8:1],2h[16:1],
7/2-5[8:1],,2/6,,{16}4,4,4,4,4,,,,
{8}3h[16:1]/7-4[8:1],3h[16:1],3h[16:1],3h[16:1],6h[16:1]/2-5[8:1],6h[16:1],6h[16:1],6h[16:1],
4h[16:1]/7-5[8:1],4h[16:1],4h[16:1],4h[16:1],6h[16:1]/3-5[8:1],6h[16:1],6h[16:1],6h[16:1],
{16}3,7,3,7,2,8,2,8,1,1,1,1,1,1,1,1,
{8}1b,7b,3b,5b,2bv5[8:1]/6b-1[8:1],,2b/6b,,
{16}4b,,4,6,,6,3h[16:2],,
7,6,5,4,3,4,5,6,
7b,,7,1,,1,6h[16:2],,
2,3,4,5,6,5,4,3,
2b,,2,1,,1,8h[16:2],,
7,6,5,4,8,7,6,5,
1b,,1,2,,2,3h[16:2],,
4,,4,5,,5,3h[16:2],,
{16}7b,,5,6,,3,5,,
2b,,4,3,,6,5,,
8b,,3,7,4,6,5,,
2b,,6,3,7,4,8,,
{16}2b,3,4,7,6,5,2,3,4,8,7,6,1,2,3,1,2,3,1,2,3,1,2,3,
1,2,3,4,5w1[8:1],,,,
{4},,,,
,,,,
,,,,
{8}8/7h[16:3],,4,3h[16:3]/5,,5,5/6h[16:4],,
{16}4,,4,,6,,4,5,3,,3,,5,,3,6,
4,,4,,6,,4,5,3,6,4,,5,,4h[8:1],,
{16}6,,6,,5,,6,4,5,,5,,3,,5,4,
{16}6h[8:1],,2,3,4,5,6h[8:1],,2,3,4,5,6h[8:2],,,,
{4}1bs5[8:4],,,,
6V42[8:4]/4V68[8:4],,,,
1s5[8:4]/5s1[8:4],,,,
7-2[8:4]/4-1[8:4],,,,
{4}8V61[8:4]/3,4,5,2,
4h[8:2]/3,1,6h[8:2]/5,4,
4V68[8:4]/2,1,2,3,
{16}4,6,5,6,3,6,5,6,2,6,5,6,1-3[8:1],6,5,6,
{4}1b-4[8:1],1b-5[8:1]/6-1[8:1],1b/6b,4-6[8:1],
4b-7[8:1]/3,4b-8[8:1]/2-5[8:1],2b/4b,7-5[8:1],
7b/8-4[8:1],8b-5[8:1]/1-6[8:1],8b/1b,3-1[8:1],
3b/4-8[8:1],4b/7-3[8:1]*-5[8:1],7b,8/7,
{8}1/8,1,2/1,2,3/2,3,4/3,4,5/4,5,6/5,6,7/6,7,8/7,8,
{32}1,2,3,4,5,6,7,8,1,2,3,4,5,6,7,8,1,2,3,4,5,6,7,8,1,2,3,4,5,6,7,8,
{8}1b,7b,3b,5b,2b-5[8:1]/6bv1[8:1],,2b/6b,,
{16}8b,,4,6h[16:2],,7,8,1,
2b,,5,3h[16:2],,6,7,8,
1b,,4,6h[16:2],,8,1,2,
3b,,5,3h[16:2],,6,7,8,
1b,,4,6h[16:2],,1,2,3,
4b,,5,3h[16:2],,6,7,8,
1b,,3,5b,,4,6b,,
2,3,5,6,3,4,6,7,
4b,,8,2h[16:2],,3,4,5,
6b,,1,7h[16:2],,2,3,4,
5b,,8,2h[16:2],,4,5,6,
7b,,1,7h[16:2],,2,3,4,
5b,,8,2h[16:2],,5,6,7,
8b,,1,7h[16:2],,2,3,4,
5b,,7,4b,,2,5b,,
4,4,7,7,3,3,5,5,
{16}4b,6,4,6,4,6,4,6,
5,6,5,6,5,6,5,6,
4,6,5,6,4,6,5,6,
3,6,5,6,3,6,5,6,
3b,5,4,6,2,5,4,6,
3,5,4,6,2,5,4,6,
3,4,1,8,5,6,1,8,
3,4,1,8,5,6,1,8,
3b,4,2,6,5,7,4,8,
2,5,3,4,2,5,3,4,
2,6,5,7,1,4,2,5,
1,6,8,5,1,6,2,5,
3b,8,2,7,4,6,3,5,
2,8,4,6,3,5,1,7,
8,6,1,5,2,4,3,1,
3,8,4,6,3,7,2,8,
{8}1b,,6-2[8:1]/2-5[8:1],7,2/6,,7-4[8:1]/4,3,
7/2-5[8:1],1,6V42[8:1],7,8v5[8:1]*v3[8:1],,8b,,
{16}2-5[8:1]/7,,,,6V42[16:3],,,7h[16:1],
,,,,6-4[8:1],,,,
3-6[8:1],,,,7,,,8h[16:1],
5,,3h[8:1],,8,7,6,5,
{4}4bV62[8:7]/1bV37[8:7],,,,
,,,,E
