&title=Stellar:Dream
&artist=EmoCosine + synthion
&first=0
&des=APMAYO
&lv_5=14+
&inote_5=(250){1},
{1},
1h[384:1],2h[384:1],3h[384:1],4h[384:1],5h[384:1],6h[384:1],7h[384:1],
{4}8p5[2:1],,3,,
{8}2,4,3,5,,6,4,,
7,5,6,4,,3,5,,
2,1,3,8,,6,4,,
7,8,6,1,5b,,,2,
2x,1,3,8,4,7,5,6,
{16}8x,1,2,3,8,7,6,5,{24}1,2,3,4,5,6,7,8,1,2,3,4,
{8}7,6/8,,2/1,3/8,,7/8,5/1,
,3/1,4>1[8:1]/8<5[8:1],,4b/8b,,,,
2hx[4:1]/A6/D6/E6f/A5/B6/B5,,,,7hx[4:1]/A3/D4/E4f/A4/B3/B4,,,,
A8/D1/A1f/D2/A2,,,B4/Cf/B8,,,A6/D6/A5f/D5/A4,,
{16}E4,B3,B2,E2,E7,B7,B8,E1,E3,B3,B4,E5,E8,B7,B6,E6,
B2,B3,B4,B5,B6,B7,B8,B1,E7,E6,E5,E4,E3,E2,E1,E8,
{8}7hx[4:1]/A3/D4/E4f/A4/B3/B4,,,,2hx[4:1]/A6/D6/E6f/A5/B6/B5,,,,
A3/D4/A4f/D5/A5,,,B7/Cf/B3,,,A1/D1/A8f/D8/A7,,
{16}E2,B2,B3,E4,E7,B6,B5,E5,A2,E3,E4,A4,A8,E8,E7,A6,
D4,D5,D6,D7,D8,D1,D2,D3,D4/C,,,,,,,,
{8}3,4,2,4,3,1,3,4,
2,4,3,3,{24}E8,E7,E6,E5,,,{8}2,2,
{8}6,5,7,5,6,8,6,5,
7,5,6,6,{24}E2,E3,E4,E5,,,{8}7,7,
{8}3,4,2,6,5,7,3,4,
{16}B1,B2,B3,B4,B8,B7,B6,B5,E2,E3,E4,E5,E1,E8,E7,E6,
2,3,4,5,6,7,8,1,2,3,4,5,6,7,8,1,
2,3,4,5,6,7,8,1,2b/6b,,,,,,,,
3,,,,5,,5,,{48}3x,E3,B2,B1,,,{16}6,,6,,6,,
2,,7,,7,,7,,{48}2x,E3,B3,B4,,,{16}7,,7,,6h[8:3],,
,,,,4,,4,,{48}6x,E7,B7,B8,,,{16}3,,3,,5h[4:1],,
,,2,,6,,4,,{48}7x,E8,B8,B1,,,{16},,,,,,
3,,,,5,,5,,{48}3x,E3,B2,B1,,,{16}6,,6,,2h[4:1],,
,,7,,3,,3,,{48}7x,E7,B6,B5,,,{16}3,,8,,2,,
1h[4:1],,,,2,,3/7h[4:1],,,,4,,5/6,,,,
7h[4:1]/8,,,,1,,6/2,,E3,E4,E5,E6,E7,E8,E1,E2,
6,,,,4,,4,,{48}6x,E7,B7,B8,,,{16}3,,3,,3,,
7,,2,,2,,2,,{48}7x,E7,B6,B5,,,{16}1h[4:1],,,,5,,
3,,6,,4,,7,,{48}3x,E3,B2,B1,,,{16}6,,6,,6,,
2,,5,,5,,5,,{48}2x,E2,,E1,,,E8,,,E7,,,E6,,,E5,,,E4,,,E3,,,
{16}6,,,,4,,4,,{48}6x,E7,B7,B8,,,{16}3,,3,,1b,,
,,3b/5b,,,,8b/7b,,,,1/6,5/2,4/3h[4:1],,,,
E5,E6,E7,E8,E1,E2,E3,E4,E5/2x,1x,8x,7x,6x,5x,4x,3x,
2x/6x,,,,4bw8[8:1]b,,,,{48},Cf,,,,,,,,,,,,,,,,,,,,,,,
{16}2-6[8:1],,8<4[16:3],,2,,8,,,,1,8,7,6,5,4,
7-3[8:1],,1>5[16:3],,7,,1,,,,8,1,2,3,4,5,
2-5[8:1],,8-4[8:1],,2,,8x-3[8:1],,,,8x-5[8:1],,,,8x,,
2-6[8:1],,4<7[16:3],,2,,4x,,,,8,1,2,3,4,5,
7-3[8:1],,1V35[16:3],,7,,1,,,,8,1,2,3,4,5,
2-6[8:1],,8V64[16:3],,2,,8,,,,1,8,7,6,5,4,
7-4[8:1],,1-5[8:1],,7,,1bx<6[8:1],,,,1bx>4[8:1],,,,1bx,,
7-3[8:1],,5-2[16:3],,7,,5bx,,,,1,8,7,6,5,4,
2q6[8:1],,8<4[16:3],,2,,8,,,,1,8,7,6,5,4,
7p3[8:1],,1>5[16:3],,7,,1,,,,8,1,2,3,4,5,
2,,8-3[8:1]b*-5[8:1]b,,1,,8b,,,,6/4,,7/3,,8h[8:3]/2,,
,,,,1,2,3,4,8,1,2,3,7,8,1,2,
6,,5,,4/7,,6,,5,,3/8,,2/8x,7x,6x,5x,
3,,4,,5/2,,3,,4,,6/1,,7/1x,2x,3x,4x,
6,,5>3[8:1]b,,7,,{48}5b<7[8:1]b,D5,A4,D4,,,,,,,,,5b-1[8:1]b,D6,A6,D7,,,,,,,,,5b,B5,C,B1,,,
{8},A8f/E8/B8/E1,,A2f/B2/E3/E2,A6f/E6/B6/E7,Cf,,,
{48}7h[2:1],,,,,,,,,,,,,,,,,,,,,,,,B3,B4,,,,,,,,,,,,,,,,,,,,,,,
6h[2:1],,,,,,,,,,,,,,,,,,,,,,,,B4,E5,,,,,,,,,,,,,,,,,,,,,,,
2h[2:1],,,,,,,,,,,,,,,,,,,,,,,,B6,B5,,,,,,,,,,,,,,,,,,,,,,,
3h[2:1],,,,,,,,,,,,,,,,,,,,,,,,B5,E5,,,,,,,,,,,,,,,,,,,,,,,
7h[2:1],,,,,,,,,,,,,,,,,,,,,,,,B3,B4,,,,,,,,,,,,,,,,,,,,,,,
2h[2:1],,,,,,,,,,,,,,,,,,,,,,,,B6,B5,,,,,,,,,,,,,,,,,,,,,,,
6h[2:1],,,,,,,,,,,,,,,,,,,,,,,,B4,E5,,,,,,,,,,,,,,,,,,,,,,,
{8}3h[2:1],,E5,,C,,,,
{48}7,,,,,,,,,,,,,,,,,,7,,,,,,B3,B4,,,,,,,,,,,7,,,,,,,,,,,,
,,,,,,,,,,,,6,,,,,,,,,,,,6/B4,E5,,,,,,,,,,,6,,,,,,,,,,,,
2,,,,,,,,,,,,,,,,,,2,,,,,,B6,B5,,,,,,,,,,,2,,,,,,,,,,,,
,,,,,,3,,,,,,3,,,,,,,,,,,,3/B5,E5,,,,,,,,,,,3,,,,,,,,,,,,
{16}5b/7b,,,,,,4b/2b,,,,,,1b/8bh[4:1],,,,
2x,3x,4x,5x,8x,1x,2x,3x,6x,7x,8x,1x,4x,5x,6x,7x,
3,8,3,8,2,1,2,1,2,2,2,2,2,2,2,2,
2h[8:3],,,,,,7,,3,,8,,,,{32}8x<4[4:1]/A4f,D4,A3/7x<3[4:1],D3,
A2/6x>2[4:1],D2,A1/5x>1[4:1],D1,A8,D8,A7,D7,A6,D6,A5,D5,A4,D4,A3,D3,A2,D2,,,,,,,6pp1[2:1],,,,Cf,,,,
,,,,,,,,,,,,,,,,,,,,,,,,{16}2,,1,,
3/8,,,,6,,5/7,,,,4,,8,,3h[4:1],,
,,7,,6,,3,,2x/4x,,1x/5x,,,,{32}1x>2-4<5[4:1]/A5f,D6,A6/2x>3-5<6[4:1],D7,
A7/3x<4-6<7[4:1],D8,A8/4x<5-7>8[4:1],D1,A1,D2,A2,D3,A3,D4,A4,D5,A5,D6,A6,D7,A7,D8,,,,,,,3qq8[2:1],,,,Cf,,,,
,,,,,,,,,,,,,,,,,,,,7,,,,{16}7,,8,,
1/6,,,,4,,3/5,,,,6,,2,,7,,
1b/8b,,,,4x/6x,,3b/7b,,,,4/8,,,,{32}8xV64[4:1]b/A4f,D4,A3/7xV53[4:1]b,D3,
A2/6xV42[4:1]b,D2,A1/5xV31[4:1]b,D1,A8,D8,A7,D7,A6,D6,A5,D5,A4,D4,A3,D3,A2,D2,,,,,,,6pp1[2:1],,,,Cf,,,,
,,,,,,,,,,,,,,,,,,,,,,,,{16}2,,1,,
3x/8x,,7,,2,,{24}E7/B7/1b,B6,B5,E5,,,E3/B2/8b,B3,B4,E5,,,2b/7b,,,
{16},,3h[8:1],,4,5,6,7,1x/8x,,1x/8x,,,,2b/7b,,
,,3-1[8:1],,4,,5,,6-8[8:1],,6,,4,,3,,
2q6[8:1],,2,,1,,8,,7p3[8:1],,7,,8,,1,,
2b/1b,,3b/8b,,,,7b/8b,,1b/5b,,,,2b/1b,,4b/7b,,
,,7b/8b,,2b/5b,,,,6,,1-5[8:1],,,,6x/Cf,7x,
8x,1x,2x,3x,4x,5x,6xpp1<4[8:7],,,,,,3,,3,
,,,,,,,,,,,,,2,,1,,
3/8,,4,,6,,5/7,,,,4,,3,,2h[4:1],,
,,5,,3,,6,,4/7,,3/8-4[8:1],,,,3x/Cf,2x,
1x,8x,7x,6x,5x,4x,3xqq8>5[8:7],,,,,,6,,6,
,,,,,,,,,,,7,,8,,7,,
1/6,,2,,4,,3/5,,,,6,,2,,7,,
8b/1b,,,,5x/4x,,7b/2b,,,,6/1-5[8:1],,,,6x/Cf,7x,
8x,1x,2x,3x,4x,5x,6xpp1<4[8:7],,,,,,3,,3,
,,,,,,,,,,,,,2,,1,,
3x/8x,,7,,2,,{24}1b/7b,6,5,4,,,2b/8b,3,4,5,,,1b/8b,,,
{32},,,,3,,,,6,,,,4h[16:10],,,,5h[16:14],,,,,,,,,,,,,,,,,
3bx,2x,1hx[32:17],,,,,,,,,,6bx,7x,8hx[32:5],,,,,,,,,
2b>8[4:3]b/7b<1[4:3]b,,,,,,,,
,,,,,,,,,,,,,,,,,,,,,,,,,,,,,,,,
{24}8bx/2bx,,,8b/2bx,3,4,,,,1bx/7bx,,,1bx/7bx,6,5,,,,8b/3b,,,8b/3b,4,5,
,,,1b/6b,,,1b/6b,5,4,,,,2x/7x,,,,,,,,,,,,
{16}3,,,,5/4,,5,,{48}2x,,,,,,{16}5,,3,,5,,
{48}E2,B2,,,,,{16}4,,3,,4,,{48}2x,,,,,,{16}6,,4,,8h[8:3],,
,,,,3,,7,,{48}B2,B3,,,,,{16}6,,4,,6,,
{48}2x,,,,,,{16}5,,4,,5,,{48}C,,,,,,{16},,,,,,
{16}6,,,,4/5,,4,,{48}7x,,,,,,{16}4,,6,,4,,
{48}E8,B7,,,,,{16}5,,6,,5,,{48}7x,,,,,,{16}4,,5,,2,,
7h[4:1],,,,8,,1/6h[4:1],,,,2,,3/4,,,,
1h[4:1]/2,,,,3pp8[8:3]b,,3h[8:3],,,,,,,,,,
{16}2,,1,,38,,2,,1,,47,,3,,6,,
8,,7,,16,,8,,7,,25,,3,,6,,
2,1,2,,8,,{24}1x/8x,7,6,5,,,2,,,4,,,1x,2,3,
4,,,7x/8x,6,5,4,,,{32}8x/1x,2,3,4,5,,,,7,,,,7,,,,3,,,,
{16}2b/8b,,,,,,6b/4b,,,,,,7hb[4:10]/3b-1-7-5-3>2-8-6-4-2<2[4:10]b,,,,
,,,,,,,,,,,,,,,,
,,,,,,,,,,,,,,,,
,,,,,,,,B7,C,B3,,,,,,
{8}2,3-8[8:1],,6,7-4[8:1],,1,8-3[8:1],
,2,1-6[8:1],,3,2-5[8:1],,5,
6-1[8:1],,3,4-7[8:1],,2,3-8[8:1],,
6,5-2[8:1],,{24}7,,,7x,6,5,4,,,2,,,2,,,
6,,,3,,,7x,6,5,2,,,6,,,2x,3,4,7,,,3,,,
8x,7,6,1,,,7,,,1x,2,3,8,,,2,,,8x,7,6,5x/3x,,,
{16}2,4,2,4,2,4,1,5,1,5,1,5,8,6,8,6,
{24}7hx[8:1]/1x,2,3,4,,,6hx[8:1]/8x,1,2,3,,,{32}1x/5x,2,3,4,5,6,7,8,{36}1,2,3,4,5,6,7,8,1,
{2}2v5[125#16:1]b/6v1[125#16:1]b,{48}2b<3[4:13]/6b,Cf,,,,,,,,,,,,,,,,,,,,,,,
,,,,,,,,,,,,,,,,,,,,,,,,,,,,,,,,,,,,,,,,,,,,,,,,
,,,,,,,,,E4,,,,E5,,,,E6,,,,,,,,,,,,,,,,,,,,,,,,,,,,,,,
,,,,,,,,,,,,,,,,,,,,,,,,,,,,,,,,,,,,,,,,,,,,,,,,
E
