&title=Lightning Boys
&artist=さだきち
&first=-0.3
&des=LNRSCHZY
&lv_5=14+
&inote_5=(225){1},1b-3-5>2[8:11]/5b-7-1<6[8:11],,
{4}1>5[8:2]/5<1[8:2],1bs5[8:10]/5bs1[8:10],,,,,,,
{8}4,3,24,1,25,6,57,8,47,3,24,1,25,6,47,3,
2>5[8:1],,2,7>2[8:1],,7,4<7[8:1],,4,1>4[8:1],,1,8w4[8:1],,8,,
2-7[8:1]/6-3[8:1],,26,,{16}1,5,2,5,3,,6,5,6,7,6,,8,5,1,5,2,,3-8[8:1],7,4,8,3,,
{8},6,15,2,34,5,46,7,5/8h[8:4],5,6>2[8:2],6,6,,,,
17,17,1/7<4[8:1],,,2p6[8:1],,,4>1[8:1],,,6p2[8:1],,,8-6-4-2-8[8:6]b,,
{1},
{32}E1,B1,B2,E3,E8,B7,B6,E6,A2,D3,A3,D4,A8,D8,A7,D7,
{2}1xbs5[8:1]b,
{8}7-4[8:1],4-6[8:1],7,,8-4[8:1]*-3[8:1],,8,,
1-5-1[4:1],,1-6[8:1]/2-4[8:1],,2,,
2-5[8:1],5-3[8:1],2,6,6,,2/7-4[8:1],,2-8[8:1]/7,2,2/6-2[8:1],6,3-5[8:1]/6,3,3/8-2[8:1]*-6[8:1],,8,,
7-4[8:1],4-6[8:1],7,,3,,7/2-5[8:1],,7-1[8:1]/2,7,7/3-7[8:1],3,6-4[8:1]/3,6,16,,
{16}2,4,3,4,2,,7,5,6,5,7,,2,4,3,4,2,,7,5,6,5,7,,5,4,3,2,1/5b,,,,
{8}1-6[8:1],6-8-2[16:3],1,,5-1[8:1],,1-7-4[16:3]/5,,2,,3-1[8:1],1-5[8:1],3,,
{16}8,7,6,,
{8}4-8[8:1]/5,3,24,,17,17,26,26,{16}3,5,3,5,4,4,4,4,4w8[8:1],,,,4,,,,
{8}1x-3[8:1],6xv1[8:1],1x-7-4[8:2],6x,,,2,5x-2[8:1],2x-8-4[8:2],5x,,,
3x,5x-3[8:1],3x-8[8:1],5x,,,{16}4,,,4,,,4,3,2,7,6,5,
A1,A2,A3,A4,A5,A6,A7,A8,
{32}B6,B5,B4,B3,B2,B1,B8,B7,
{4}B6f,
{4}2x-4[8:1]/7x-3[8:1],2<7[8:1]/7<4[8:1],2/7-1-3[8:1],{8}6,6-8-4[4:1],
,4-2-6[8:2],,,1>7[2:1],,,5h[4:1],,,,,68,1-5[8:1]/7,28,1/3-8[8:1],
,7-4[8:1],,2-6[8:1],,1<3[8:3],,4h[8:3],,,,,2-8-3-7-4-6[8:7],,,7h[8:3],
,,,8,,7x,7x,5xh[8:2]/7xh[8:2],,,,56,,34,2,1v6[8:1]/8,,1/7<4[8:1],,3>8[8:1]/7,,37,,27,
{4}7-5[8:1]/2-6[8:1],7>2[8:1]/2>5[8:1],7/2-8-6[8:1],{8}3,3>1-5[4:1],
,5<7-3[8:2],,,8<2[2:1],,,4h[4:1],,,,,31,8-4[8:1]/2,71,8/6-1[8:1],
,2-5[8:1],,7-3[8:1],,8>6[8:3],,5h[8:3],,,,7-5-3[8:2],,8,1,
2-5[8:1],,28,,7-3[8:1],,1-6v4>6[8:13]b/7,,1xh[8:13],
,,,,,,,{1},{8}1>3[8:1]/5<7[8:1],,,,4-1[8:1]/8,,7,6,5-8[8:1],,15,,1<7[8:1]/5>3[8:1],
,1pp4[8:8]/5pp8[8:8],,1b/5b,,,,,,,,,
{16},,,,6,5,6,7,6,,8,7,8,,78,,
{8}1-7[8:1]/6-4[8:1],,1-3[8:1]/6-2[8:1],,1-7<4[4:1]/6,,1>4[8:1]/4-1[8:1],,
1<5[8:1],,5,,{16}3x,1,2,7,8,6,1/5,,2,4,3,,
{8}8-6[8:1]/3-7[8:1],,8-2>5[4:1]/3,,8<5[8:1]/5-8[8:1],,
8w4[8:1],,B8,,{16}2,6,1-6[8:1]*-3[8:1],7,8,,1,,,,
45,,6,,17,,2,8,3,8,4-8[8:1],1,5,1,
4,,{24}7-3[8:1],6,5,1,2,3,7,,,2,1,8,5-1[8:1],6,7,{8}5x,
{32}8b-3-5-7-2[8:10]b,B5,C,B1,A1f,,,,
{8},2xh[8:1],,,1xh[8:1],,,8xh[8:1],,,4xh[8:1],,,1,1h[8:2]/4,,
{12}3,5-8[8:1],1,7,5,,,6,1,4,2,1,3,8-3[8:1],4,6,8,,,,8,17,,,
6,4-1[8:1],8,2,4,,,3,8,{8}8h[8:4],A7/B7/E7,A1/B1/E1,,2>5[8:1],,1-4[8:1]*-6[8:1]/2,,
{8}1,,,
{12}3,1,2,7,5,6,3,4,2,
{16}8,1,7,4,5,3,4,2,8,1,7,5,6,4,,,
{24}3,2,1,7,6,5,3,2,1,7,6,5,8,4,8,4,,,1,2,3,5w1[8:1],6,7,
{32}1,2,3,4,5b<6<7>8>1>2>3<4<5[8:6]b,B5f,,,{4},,,
1h[8:7],,,{8},8h[8:9],
{1},
{8}5h[4:6],,,,4,,,4h[8:5],
{1},
{8}5<4[8:12],,,,E3,,,E1,,,,,E7,,,,
{2}5h[4:1]/6h[4:1],3h[4:1]/4h[4:1],5-1[8:1]/7h[4:1],2h[4:1]/4-8[8:1],
{16}1-7[8:1]/6-2[8:1],,,,1>4[8:1]/6,,,,1,,6pp4[8:3],5,6,7,6,,
{8},,1qq3[8:3],,1,4,5,5,
,,3-7[8:1]/6-4[8:1],,3/6<1[8:1],,6,2p8[8:3],,,8,,7,,6,6,
{8}6/8-4[8:1],,6-1[8:1]/8,,2-5[8:1]/6,,28,7,
46,46,35,35,{16}2,4,2,4,1,8,1,8,
{16}27,3,4,5,6,7,8,1,{24}26,3,4,5,6,7,8,1,2,3,4,5,{32}8b,7,6,5,4,3,2,1,8w4[8:1],7,6,5,4,3,2,1,{8}8,,16,
{8}1v4[8:1]/6,,1-6[8:1]/6,8,1-3-5[8:1]/3,2,1-6[8:1]/5v2[8:1],8,1,
,3/7-5[8:1],4,2-4[8:1]/7,1-7[8:1],2-6[8:1],1-5[8:1],2>5[8:1],1,2,8,
{16}6x-4[8:1],5x,6x,7x,6x,,8,,1/5,,2,,2-8[8:1],4,3,4,{8}2>5[8:1]/5<8[8:1],,2/5-1-3[16:3],,1,,
48,4-8[8:1]/8<5[8:1],,4-2-6[4:1]/8,,1,1,,
51,5-1[8:1]/1>4[8:1],,5-7-3[4:1]/1,,8,8,,
{16}6<8[8:1],4,5,4,6,,3,,2>4[8:1],1,2,3,2,,
,,6xh[8:3],,7,8,1,2,3,,47,,8,,
{8}8-5[8:1]/5,,8-3[8:1],1,8-5[8:1],7,8-3[8:1],2,8-6>5[8:1],6,
8-2>3[8:1],4,8-4[8:1],6,8,1,2-5[8:1],
3,6-1[8:1],7,4-8[8:1],3,7p3[8:1],6,1-6[8:1],2,1,5,
{24}5-1[8:1]/7x,8,1,2,3,4,5/8w4[8:1],,,,,,8,,,
,,,,,7h/8h,16,25,34,,,,,,,1h/2h,38,47,56,,,,,,
1b/6b,2,3,4,5,6,7,8,1,2b/7b,6,5,4,3,2,1,8,7,2b/6b,3,4,5,6,7,
{16}8b,5,5,1b,6,6,2b,7,7,3b,8,8,{24}4b,5,6,7,8,1,2,3-8[8:1]/7-4[8:1],
{24},{16},,,,,,1>4[8:1]/5<8[8:1],,,,,,,,
7,5,7,5,7,,1,6,2,7,3,,8-4[8:1],4,1,5,8,,3,5,2,6,1,,5-1[8:1],1,4,8,5b,,,,
3-1[8:1],8,4,7,3,,7,8,7,6,7,,4-8[8:1],8,3,7,4,,6-1[8:1],1,5,2,6,,3-8[8:1],2,3,4,3b,,,,
{16}5,1,6,1,7,1,6,1,5,8,4,8,3,8,4,8,
5,1,6,1,7,1,6,1,5,8,4,8,3,8,4,8,
{24}15,26,37,48,1,2,3,4,5,26,37,48,15,6,7,8,1,2,13,48,57,6bz2[8:1]b,
