&title=A journey to the moonlight
&artist=Yesod (Rabbit House + litmus* + A.Ki)
&first=0
&des=
&des_5=Antares from 「maimai MOON」
&lv_5=13+
&inote_5=(174)
{1},
{8}Cf,,,,,6,5,4,
4h[2:1],,,,,,6,6h[8:5],
,,,,,,3,3h[8:5],
,,,,,,6h[4:3],1-6-2-5[8:3],
,,,,,6,3h[4:3],8-3-7-4[8:3],
,,,,,,3,7-2-6-3[8:3],
,,,,,2>8[8:9],2,,
,,,Cfh[8:5],,,,,
,,,,,6,1,8,
3h[2:1],,,,,,5,2h[8:5],
,,,,,,7,4h[8:5],
,,,,,,2h[4:3],7<5-1>3[8:3],
,,,,,8,7h[4:3],2>4-8<6[8:3],
,,,,,,7,1,
8q6>8[8:8]*q6>8[8:8],,,C,
{1},{16}5,4,5,4,5,4,5,4,
{16}6b,,,6,5,,6,,6/5,,,6,4,,6,,
6/5,,,6,3,,6,,6/5,,,6,2,,5,,
4/3,,,3,4,,3,,3/4,,,3,5,,3,,
3/4,,,3,6,,3,,3/4,,,3,7,,4,,
5/4,,5,4,,4,6,,6/3,,3,6,,6,2,,
7/2,,7,2,,2,8,,8/1,,8,1,,1,8,,
7,2,7,2,8,1,8,1,7,2,8,1,7,2,8,1,
7b,2,6,3,5,4,8b,1,7,2,6,3,Ch[4:1],,,,
{4}B6/B5/E6f,{48}2bx,3x,4x,,,,1bx,8x,7x,,,,,,,2bx,B2,C,B6,,,,,,
1bx,E1,B8,B7,,,,,,2bx,E3,B3,B4,,,1bx,B1,C,B5,,,,,,
2bx,3x,4x,,,,,,,1bx,E1,B8,B7,,,2bx,E3,B3,B4,,,,,,
1bx,8x,7x,,,,2bx,3x,4x,,,,
{16}1bx-5[8:1],,2x,,8/1,,8,7,6,,6h[4:1],,,,3,,
2-4[8:1],1,3,,2/7,,7<4[8:1],8,6,1,7,,Ch[4:1],,,,
{4}B4/B3/E4f,{48}7bx,6x,5x,,,,8bx,1x,2x,,,,,,,7bx,B7,C,B3,,,,,,
8bx,E1,B1,B2,,,,,,7bx,E7,B6,B5,,,8bx,B8,C,B4,,,,,,
7bx,6x,5x,,,,,,,8bx,E1,B1,B2,,,7bx,E7,B6,B5,,,,,,
8bx,1x,2x,,,,7bx,6x,5x,,,,
{16}8bx-4[8:1],,7x,,8x/1x,,1,2,3,,3h[4:1],,7x-2[8:1],,,,
{8}7b/3,3-6[8:1],4,3bx/7,,B7/B6,Ch[4:1],,
{4}E1f/B8/B1,{48}4bx,3x,2x,,,,5bx,6x,7x,,,,,,,4bx,E4,B3,B2,E2,,,,,
6bx,7x,8x,,,,,,,3bx,2x,1x,,,,5bx,E6,B6,B7,E8,,,,,
4bx,B4,C,B8,,,,,,6bx,7x,8x,,,,3bx,2x,1x,,,,,,,
5bx-1[8:1],6x,7x,,,,4bx,3x,2x,,,,
{4}5bx,{16}4h,,5h,,4h,,5h,4h,6h,,6h,,
4h,6h,3h,,3h,,6h,3h,7h,2h,8h,,Ch[4:1],,,,
{4}B5/B4/E5f,{48}8bx,7x,6x,,,,1bx,2x,3x,,,,,,,8bx,E8,B7,B6,E6,,,,,
2bx,3x,4x,,,,,,,7bx,6x,5x,,,,1bx,E2,B2,B3,E4,,,,,
8bx,B8,C,B4,,,,,,2bx,3x,4x,,,,7bx,6x,5x,,,,,,,
1bx,2x,3x,,,,8bx,7x,6x,,,,1bx,B1,C,B5,,,,,,,,,
{16}7/4,,4,6,3,5,2,,5,3,6,4,
7,,3,6,2,5,2,5,{32}2,3,4,5,6,7,8,1,{4}6bx/2bx,
{16}7/2,,5,,1,,5,4h[16:3],,,5,,8,,5,4h[16:3],
,,5,,1,,5,1h[16:3],,,5,,6/2,,7,,
7/3,,4,,8,,4,5h[16:3],,,4,,1,,4,5h[16:3],
,,4,,8,,4,8h[16:3],,,4,,7/3,,2,,
1/5,,5,,1,,5,6h[16:3],,,5,,8,,5,6h[16:3],
,,5,,8,,5,1h[16:3],,,5,,6/2,,3,,
4/8,,4,,8,,4,3h[16:3],,,4,,1,,4,3h[16:3],
,,4,,1,,4,8,,4,8,,3/7,,2,,
7/1,,1,,8>3[32:5],,8,8h[16:3],,,,,1<6[32:5],,1,1h[16:3],
,,,,7-1[8:1],,7,7h[16:3],,,,,6/2,,3,,
8/2,,8,,1<6[8:1],,1,1h[16:3],,,,,8>3[8:1],,8,8h[16:3],
,,,,2-8[8:1],,2,2h[16:3],,,,,7/3,,6,,
7/2,,1,,7-3[8:1],,7,7h[16:3],,,,,2-6[8:1],,2,2h[16:3],
,,,,5q1[8:1],,5,5h[16:3],,,,,6/2,,3,,
7/2,,8,,7/2-6[8:1],,2,2h[16:3],,,,,7-3[8:1],,7,7h[16:3],
,,,,2/6,,1/5,1/5,,8/4,8/4,,1,5,2,6,
{1}7xh[1:1]/3b>6[4:7],
{4},,,6>1[16:19],,,,,
{2}1q5[1:1],{6}8h,7h,6h,
{12}5z1[12:11],,,6xh,,7h[3:4],,,,,,,
{4},,,{12}2xh,3xh,4xh,
1h,2h,3h,8h,1h,2h,7h,8h,1h,6h,7h,8h,
{4}1h[4:1],3h[4:1],5h[4:1],7h[4:1],
{8}8bv3[4:5],,,,6,,,5,
,,5,,{12}6,,4,,{24},{16}4,5,
{2}4v7[4:5],{8}1,,,{16}1,2,
{4}3,3,{6}2,3,4,
{2}7h[2:1],{8}4,,2h[4:3],5,
,,5,,5,,,,
{1}5bs1<8z4[1:1]/3bz7>8s4[1:1],
{2},{16}4,5,4,5,4,5,4,5,
3b,,,3,4,,3,,3/4,,,3,5,,3,,
3/4,,,3,6,,3,,3/4,,,3,7,,4,,
6/5,,,6,5,,6,,6/5,,,6,4,,6,,
6/5,,,6,3,,6,,6/5,,,6,2,,5,,
{4}4/5,{16}4,5,4,5,3,6,3,6,2,7,2,7,
1,8,1,8,2,7,2,7,1,8,2,7,1,8,2,7,
3,8,4,7,3,8,2,7,1,6,2,5,1,6,2,7,
1b,8,2,7,3,6,2b,7,3,6,4,5,{4}Ch[4:1],
{16}8b,,,,1,,7,8,{4}6bh[1:1]/1b-6-3-8-5-2-7-4-1b[4:5],{32},,,,,,,,
,,,,,,,,,,,,,,,,,,,,,,,,,,,,,,,,
{16}8x,7x,2x,3x,{8}4,8x,{32}3bh[8:7]/8b-4-7-2-6-8b[4:3],,,,,,,,,{32},,,,,{32},,
,,,,,,,,,,,,{24},,,{8}3xh[16:1],3h[16:1],2h[16:1],2h[16:1],
{4}1bxh[8:1]/8bxh[8:1],{16}1x-4[8:1],8x,1x,8x,{4}1bx-6-4-8-2-5-7-3-1b[4:5],{32}7h[4:3],,,,,,,,
,,,,,,,,,,,,,,,,,,,,,,,,,,,,,,,,
{16}8,,6,,8/1,,2,1,2,,2h[4:1],,6-3[8:1],,,,
6b/2,,2-7[8:1],,1,,2b/6,,,,8,,Cfh[4:1],,,,
1b,,,,8,,2,1,{4}3bh[1:1]/8b-5-2-6-1-4-7-3-8b[4:5],{32},,,,,,,,,,,,,,,,,,,,,,,,,,,,,,,,,,,,,,,,
{16}3x,4x,7x,6x,5x,,1,,{32}6bh[8:7]/1b-5-2-7-3-1b[4:3],,,,,,,,,,,,,,,,,,,,,,,,,,,,,,,,{8}6xh[16:1],6xh[16:1],7h[16:1],7h[16:1],
{4}1bxh[8:1]/8bxh[8:1],{16}8x-5[8:1],1x,8x,1x,{4}8bx-3-5-1-7-4-2-6-8b[4:5],{32}2xh[4:3],,,,,,,,
,,,,,,,,,,,,,,,,,,,,,,,,,,,,,,,,
{4}2b,{16}7,4,6,3,5,,2,5,3,6,4,,
7,4,7,5,7,4,7,3,{32}7b,6,5,4,3,2,1,8,2b/7-3[32:3],3,4,5,6,7,8,1<3[1:1]*p3[1:1],
{24}7b/2b,Cf,{12},,,,,,,,,,,
,,,,,,{16}E8,,,E3,,,B6,B5,
B4/B3,,,,,,,,,,,,,,B1,B7,
C,,,,,,B5,,B1,,,B2,,,B3,,
B4/C,,{4},,,{8}B7/B5,
,,,,,,,{16}B6/B3,B5/B2,B4/B1,
