&title=Sterelogue
&artist=VeetaCrush
&first=0
&des=Yume
&lv_5=14+
&inote_1=(202){4},,,,,,,,,,,,,,,,
&inote_5=(202)
{4},,,,,,,,,,,,,,,{64},,,,,,,,,,,,,1/8,2/7,3/6,
{1}4h[1:4]/5b<3[2:7],,,,
{8}5,,6,,1/7h[4:3],2,3,4,5,4,3,,6/2h[2:1],5,6,7,8,1,2,,1/8,7,3,5,3h[2:1],8,7,6,5h[4:1],,4,,
{16}1b-4[8:1],,8,,7,,6,,3,5,3,,2/7,,6,,1-3[8:1],,5,,6,,7,4,7,,3,,2,,1,,8-6[8:1],,2,,3,,4,5,4,,6,,7,,8,,8-4[8:1],,1,,2,,3,,5,4,6,3,7,,2,,7<5[8:1],,3,,2,,3,,8,7,6,,3/6,,3,,4>1[8:1],,7,,6,,5,4,5,,6,,2,,8,,2-5[8:1],,7,,6,,6,,1,2,3,,6/3,,6,,1h[8:1],,5h[8:1],,8h[8:1],,4,,3/7,,4/8,,1-6[8:1]/5,,2/6,,
{8}1b-4[8:1]/7,,1,,2-8[8:1]/6-8[8:1],3/5,6-4[8:1]/2-4[8:1],,2-6[8:1]/6,,2,7-1[8:1],,7/2,3h[4:1],,6-3[8:1],,6/2-5[8:1],,2V84[5:1]/6V84[5:1],,2/6-4[8:1],,6-1[8:1],,6,2,3,4,5-8[8:1],6,5-2[8:1],,5,,4-6[8:1],3,2-8[8:1]/4-8[8:1],,4/2V46[4:1],,2/7,8h[4:1],,2,3-6[8:1],,3-7[8:1],,3,1-3[8:1],,1,5-7[8:1]*-3[8:1],,5,,8/2,6,8/1,5,1/7-1[8:1],3,7V53[4:1],,7,2-5[8:1],,2,6-2[8:1],,6-4[8:1]/3-5[8:1],,6/3v8[8:1],,3-5[8:1]/7-5[8:1],,3-1[8:1]/7-1[8:1],,3/7V52[4:1],,7,8-6[8:1],,8,2-4[8:1],,2/6h[4:1],,2-7[8:1],,6,5,4-2[12:1],3,4/3V57[4:1],,3,2-7[8:1],,2/4,3,2,5V73[4:1],,5,4V28[4:1],,4,6-8[8:1],,6V42[4:1],,6,7V53[5:1],,7,2,,{16}1,2,3,4,8,7,6,5,1,2,3,4,5,6,7,8,
{4}1h[2:3]/5b<8[4:5],,,,,,,{8}6,7,5h[1:1],,,,2,,{16},,2,3,{4}4h[2:1],,6h[2:1],,2h[2:1],,,8h[4:1],7h[2:1],,8h[4:1],1h[4:1],2h[4:1],3h[4:1],4h[4:1],6h[4:1],5h[2:1],,{8}4,3,2,1,
{8}8-5[2:1],2,2,,3,3,,4,1-4[2:1],8,7,7,6,6,5h[4:1],,2>5[2:1],8,8,,7,7,,6,7<4[2:1],8,1,2,3,1,2,3,5V71[2:1],4,4,,3,3,,2,4V28[2:1],5,5,7,7,7,6h[4:1],,3-6[2:1],1,1,,8,8,7,7,{16}2,1,3,8,4,7,5,6,3,4,2,5,1,6,8,7,
{8}2bV85[4:5],,,2-6[8:7],,,,,,,,,,,3,,3-6[4:5],,,2V85[8:7],,,,,,,,,,,6,7,5-8[8:1],,,5>8[8:7],,,,,6h[2:1],,,,,,6,,2-6[8:6]*<4[8:9],,,,,,,,,,,,{16}3,,,3,,,3,,
{8}5-8[8:1],,5,5>8[8:7],,6,7,,6,6,7,{16}7,6,{8}5,5,6,,1<4[4:5],,1,2,,3,2,,3,3,2,{16}1,2,{8}3,3,1,2,1-4[8:3],,1,4<6[8:3],,6,8,,2,3,4,{16}6,5,{8}6,7,8,,5-8[8:1],4,5,{16}2,4,3,5,{8}4,7,8,1/5,2/6,3/7,4/8,1/5h[4:1],,1-6[8:1],,
{8}1b-4[8:1]/7,,1,,2-8[8:1]/6-8[8:1],3/5,6-4[8:1]/2-4[8:1],,2-6[8:1]/6,,2,7-1[8:1],,7/2,3h[4:1],,6-3[8:1],,6/2-5[8:1],,2V84[5:1]/6V84[5:1],,2/6-4[8:1],,6-1[8:1],,6,2,3,4,5-8[8:1],6,5-2[8:1],,5,,4-6[8:1],3,2-8[8:1]/4-8[8:1],,4/2V46[4:1],,2/7,8h[4:1],,2,3-6[8:1],,3-7[8:1],,3,1-3[8:1],,1,5-7[8:1]*-3[8:1],,5,,8/2,6,8/1,5,1/7-1[8:1],3,7V53[4:1],,7,2-5[8:1],,2,6-2[8:1],,6-4[8:1]/3-5[8:1],,6/3v8[8:1],,3-5[8:1]/7-5[8:1],,3-1[8:1]/7-1[8:1],,3/7V52[4:1],,7,8-6[8:1],,8,2-4[8:1],,2/6h[4:1],,2-7[8:1],,6,5,4-2[12:1],3,4/3V57[4:1],,3,2-7[8:1],,2/4,3,2,5V73[4:1],,5,4V28[4:1],,4,6-8[8:1],,6V42[4:1],,6,7V53[5:1],,7,2,,{16}1,2,3,4,8,7,6,5,1,2,3,4,5,6,7,8,
{16}3b,,5,5,4,,6,,2,,3,2,1,,7,,2,4,3,,8,7,,5,6,,3,,2,,1,,7,,6,,1,2,3,,7,6,5,,3,4,5,,1,2,3,4,8,7,6,5,3,2,6,7,3,4,6,5,2,,3,,6,6,,7,4,3,2,1,8,7,6,5,1,2,7,6,1,2,7,6,3,2,5,6,3,2,5,6,2,1,3,8,4,7,5,6,8,7,1,6,2,5,3,4,2,5,2,5,3,6,3,6,4b/7,,3b/6,,2b/5,,1b/4,,3,,5,5,4,,6,,1,,3,2,1,,7,,4,3,2,,8,8,,,6,,4,5,4,,3,,2,,4,4,8,7,6,,2,3,7,6,3,4,6,5,1,2,3,4,1,2,3,4,8,7,6,5,8,7,6,5,3,,3,,5,6,,6,4,3,2,1,5,6,7,8,3,1,2,8,1,7,8,6,1/8,,2/7,,3/6,,4/5,3,2/8,,4/6,,,3/8,,,1/7,,2,4,3,5,4,6,1,2,3,4,5,6,7,8,1,5,2,6,3,7,4,8,
{4}5<8[64:3]*<8[64:3],{64}1b/5b-1[1:3],2,3,4,,,,,,,,,,,,,{4},,,,,,,,,,,,,,
{8}5,,6,,1/7h[4:3],2,3,4,5,4,3,,6/2h[2:1],5,6,7,8,1,2,,1/8,7,3,5,3h[2:1],8,7,6,5h[4:1],,4,,6/4,3,1,2,8,7,2,3,6,5,4,3,2,4,5,7,8/2,4,5,7,6,5,4,3,1,2,3,4,5,6,7,6,5/4,3,1,2,8,7,2,3,6,5,4,3,2,4,5,7,8/2,4,5,7,6,5,4,3,1,2,3,4,5,6,7,8h[8:7],,,,,,2,1b-5[1:3]*-5[1:3],,,,,,,{24},,6,{4}7,,,{24},,,,,7,8,,,,,,{1},
