&title=ハローセカイ
&artist=DECO*27
&first=1
&des=Deluxion
&lv_5=13+
&inote_5=(148)
{5},,D7,B7,,,,
{32},,,,,E1,,,C,,,,,,,E5,,,,,,,B2,,,,,,,D3,
{5},,,,,,,D7,B7,,,,
{32},,,E5,,,C,,,,,,,E1,,,,,,,B2,,,,,,,D3,,
{16},,,,,,,,,6,,,6qq8qq2qq4qq6[1:3],,,,,,A2,,,,,,,,,,,,,A4,,,,,,,,,,,,,,A6,,,,,,,,,,,,,A8,
{16},,,,,,C,,,8qq5[1.722##3.1418]*pp3[1.722##3.1418],,
,,,,,,,,,,,6qq4[16:31]/2pp4[16:31],
{8},,,,,,,,,,,,,,,,,,,Ch[8:32],A6
,E7,E8,A8,A1,E2,E3,A3,A2,A1,A8,A7,A6,A5,A4,A3,E5/D5,E6/D6,E7/D7,E8,E1/D1,E2/D2,E3/D3,E4/D4,B4/B5,B1/B8,B4/B5,B1/B8,B2/B3,B6/B7,B2/B3,B6/B7,
{32},,,,,7>6[8:6]/1h[8:1],,
{16},,,,,,,,,7,,8,,1,,2,,3p6[8:1],,,,,,,,,,,
{32},,,,,,2<3[8:6]/8h[8:1],,
{16},,,,,,,,,2,,1,,8,,7,,6q3[8:1],,
,,,,,,,,1pp5[8:8],,1,,8,,8,,,,7,,7,,7h[8:2],,,,,,,,,,
,,,,8qq4[8:8],,8,,1,,,,2,,2,,,,3,,3,,3h[8:2],,,,
,,,,,,,,E8/B8/B1/B2/B3/B4/B5/B6/B7/E6,,,,,
,5h[8:1]/6h[8:3],,,,5h[8:3],,,,6h[8:1],,,,6h[8:5],,7,,8,,1,,2,,3p6[8:1],,,,,,,,,,
3h[8:3]/4h[8:1],,,,4h[8:3],,,,3h[8:1],,,,3h[8:5],,2,,1,,8,,7,,6q3[8:1],,,,,,,,
,,E1,,6x/E2,,E3,,7x/E4,,E5,,E6/1x,,E7,,E8/3x,,E1,,E2/6,,E3,,E4/7,,E5,,E6/1,,E7,,E8/3,,E1,,E3,,E5,,E7,,A1,,A3,,A5,,A7,,1,,1h[8:2],,3,,3h[8:2],,5,,5h[8:2],,7,,7h[8:1],,1w5[8:4],,,,,,,,
,,,,,,,,4bxw8[8:2]b/5bxw1[8:2]b,,,,,,,,,,,,
C,,,,Cf/B7/B8/B1/B2/E8/E2,,,,,,B1/B2/B3/B4/B5/B6/B7/B8/Cf,,
(150),,
6-1[8:1],,5,,4^3-1[8:2],,,,5,,6,,7,,,,7/1,,7/2-6[8:1],,3,,7-3[8:1],,6x,,1-4[8:1],,2,,8-5[8:1],,7,,2-6[8:1],,3,,7p3[8:1],,6x,,7/2^8[8:1],,2,,,,
,,,,7-3[8:1]/2,,6,,2-6[8:1],,3x,,8-5[8:1],,7,,1-4[8:1],,2,,7-3[8:1],,6,,2q6[8:1],,3x,,8/2,,,,
6x/1x,,7/2,,D4,,2/7-3[8:1],,D6,,1-4[8:1],,D3,,8-5[8:1],,D7,,2-6[8:1],,D4,,7-3[8:1],,5,,1xpp5[16:5],,1x,,,,
,,C,,,,
(152)8<4[101#8:1]*>4[101#8:1]/Cf,,,,,,A1/A2/A3/A4/A5/A6/A7/A8/D1/D2/D3/D4/D5/D6/D7/D8,,,,
7h[8:3]/4,,3,,2h[8:4],,,,5,,6,,7,,,,
8/1^4[8:2],,C,,4^7[8:2],,4,,7^2[8:2],,7,,2^5[8:2],,2,,5^8[8:2],,5,,8pp4[8:3],,C,,,,E7/B6/B7,,B6/B7/E7,,,,,,,,
6,,6h[8:1]/5,,E1/B8/B1,,6h[8:1]/5,,E1/B8/B1,,3h[8:1]/4,,E1/B8/B1,,3h[8:1]/4,,E1/B8/B1,,6h[8:1]/4,,A1/E1/E2/B1,,3h[8:1]/5,,A8/E8/E1/B8,,6h[8:1]/4,,A1/E1/E2/B1,,3h[8:1]/5,,A8/E8/E1/B8,,2,2,3,3,4,4,5,5,6,6,7,7,8,8,1,1,
{32}2,3,4,5,6,7,8,1,2,3,4,5,6,7,8,1,2b/Cf/B6/B7,,,,
{8},7bp3[8:1]/Cf/B2/B3,,7/1>4[8:1],,1/7p3[8:1],,7/1>4[8:1],,
1/7p3[8:1],,7/1>4[8:1],,1/7p3[8:1],,7/1>4[8:1],2,1/7p3[8:1],6,7/1,,
7/1>4[8:1],2,1/7p3[8:1],6,7/1>5[8:1],2,1qq5[16:5],,Chf[8:2]/B2/B3,,,,,
7/B2/B3,7/B2/B3,,2-7[8:1]/B6/B7,,5^8[101#8:1]/2x,6x,6x,4bx^1[8:1]/5bx,,4bx/5bxw1[8:1]b,,5xb,,
7h[8:1],6x-1[8:1],6,6/5x-2[8:1],5,5/4x-7[8:1],4,4/3x-8[8:1],3,3/2x,2x>7[8:2]*v7[8:2],,,,,,,
8/1>4[8:1],8h[8:5],1v6[8:1]b,,1b>4[8:1],,1v6[8:1]b,,7/1b>4[8:1],7h[8:5],1-5[8:1]b,,1b>4[8:1],,1v6[8:1]b,8,8/1b>4[8:1],7,7/1-5[8:1],,8/1>4[8:1],7,6/1,6,7/1
,8-4[8:1]/A3/B3/E3,,8/1-5[8:2],,1/A7/B7/E7,,,,
3,3/A8/A1/D1/E1/B8/B1,,6-3[8:1]/A8/A1/D1/E1/B8/B1,,6/2-7[101#8:1]b,1,1,2b/6b-3[8:1]b,,4bw8[8:1]b,,4b,,
2,2/4,4,4/5,5,5/7,7,7/1,1,1w5[8:2]/3,1/3,,,,,,
1/8,2/7-3[8:1],6,
{64}7bx,B7,C,B3,,,,,,,1bx,B1,C,B5,,,,,,,8bx,B8,C,B4,,,,,,,,,
{8},3x,2x,1x,
{64}8bx,B8,C,B4,,,,,,,1bx,B1,C,B5,,,,,,,2bx,B2,C,B6,,,,,,,,,
{8},2V46[8:2],2,6V82[8:3],,2,2v5[8:2],,5V71[8:3],,1,1V35v2[8:4],,5,,7,7,
,,4h[8:1]/6h[8:1],
{16},,6,5,7,,3-8[8:1],4,2,,,3/6-1[8:1],,,6/4h[8:3],,
{32},,,,1,,8,,7,,,,5,,6,,7,,,,
{8}8^2-4v1[8:6]/1^7-5v8[8:6],,,,,,,,,,4h[8:4]/8v3-1[8:1]b,,8bv5-7[8:1]b,,
8b,,
1,2-6[8:1]/7,3,
{64}2b,B2,C,B6,,,,,,,8b,B8,C,B4,,,,,,,1b,B1,C,B5,,,,,,,,,
{8},6,7,8,
{64}1b,B1,C,B5,,,,,,,8b,B8,C,B4,,,,,,,7b,B7,C,B3,,,,,,,,,
{8},7V53[8:2],7,3V17[8:3],,7,7v4[8:2],,4V28[8:3],,8,8V64v7[8:4],,4,,2,2,
,,2h[8:1]/7h[8:1],
{16},,7,8,6,,2-5[8:1],1,3,,,2/7-4[8:1],,,7/2h[8:1],,,,6,8,7,,3,1,2,,
{8}1^7-5v8[8:8]/8^2-4v1[8:8],,,,,,,,,,,,E1,A2,E4,E6,A7,
{16}8bx/2bx>6[16:3],,,,1bx/2bx,,,8,,,7bxp1[8:2]/5bx,,,,4,,4,,3,,2,,2,4,,4,1h[8:3],,
{32}E5,E4,E3,E2,E1,E8,E7,E6,{16}E5f,,2,,
2>5[8:1],,,1/2,,,8,,7<4[8:1],,,8/7,,,1,8,2h[8:1],,3,3h[8:1],,4,4h[8:1],,
,,2x/7x,,1x-5[8:1]/8x,,2x/7x,,1/8-4[8:1],,,8/1,2-6[8:1],,,2/1,8,,
6x,,5x-1[8:1]/4x,,6x/3x,,5/4-8[8:1],,,4/5,6-2[8:1],,,6/5,4,,
1x/8x,,2x-5[8:1]/7x-4[8:1],,3x/6x,,2/7,,,6/7,6/7,,,2/3,2/3,,
E1/B8/B1,,E7/B6/B7/B3/B2/E3,,B4/B5/E5,,Cf,,,5/6,5/7,,,3/4,2^7[8:1]/4^7[8:1],,,,,,
{16},,6x/1x,,7-3[8:1],8,6,,7/1-5[8:1],,2,,1/7^4[8:1],,6,,7/3^8[8:1],,2,,3/7^4[8:1],,
6,,7/1,,2q7[8:1],,3,,2,,
,,8x,,2-6[8:1],1,3,,2/8-4[8:1],,7
,,8/2^5[8:1],,3,,2/6^1[8:1],,7,,6/2^5[8:1],,
3,,8/2,,7p2[8:1],,6,,7,,,,
3x,,7-2[8:1],5,6,,7/1^4[8:1],,,,1/8^5[8:2],,,,8/4,,3,,2,,1,,1qq1[8:2]*pp1[16:3],,,,,,,,,,
7x/2x,,6-3[8:1],8,7,,6/4^1[8:1],,,,4/5^8[8:2],,,,5/1,,2,,3,,4,,4qq4[8:2]*pp4[8:2],,,,,,,,
E
