&title=Swan Song
&artist=void
&first=0.02
&des=Aquaplume
&lv_5=14
&inote_5=(148)
{4},,B6,B2,
{16}3/4,,5,3h[8:1],,6,4,7,5h[16:3],,,6h[16:3],,,7,,
{1}7qq1[4:3]/8,
{8}2h[8:3],,3,3h[8:3],,4,4h[8:8],,
{4}A2,C,A6,B7,
{16},8,5,5,,7,4,4,,,6,3,5,2,4,4,
,3,5,5,,4,6,6,,,5,6,4,7,3,8,
1/2h[16:3],,,4h[16:3],,,5,,8/7h[16:3],,,5h[16:3],,,4,,
{16}3,5,2,6,1,7,8h[16:6],{32}6,5,{16}4bx,,,,5,1,7,3,
{4}8V25[8:3]/4,6h[4:1],{16},,7,7,4,8,3,6,
{4}2<5[8:3]/5,3h[4:1],{8},2h[4:1],,{16}4,4,
1h[16:2],,3,8h[16:2],,6,1h[16:2],,3,8h[16:2],,7,4h[16:2],,2,5h[16:2],
,7,4h[16:2],,1,4,8,3,7,2,6,1,{24}7,6,5,2,3,4,
{4}8h[4:1],{24}6,7,8,1,2,3,{16}4h[16:3]/5,,,1h[16:3],,,5,,
8,4,6,2h[16:3],,,5,1,7,3h[16:3],,,8,4,6,2,
{4}1h[4:1]/8,{24}3v8[4:1],2,1,8,7,6,{4}5h[4:1],{8},{16}1,5,
4/2h[16:3],,,3h[16:3],,,5,,7h[16:3]/4,,,6h[16:3],,,5,,
{1}8>4[4:2]/4pp8[4:2],
{24}8,7,6,B4,B3,E3,7,6,5,E4,B3,B2,8,7,6,B4,B3,E3,7,6,5,E4,B3,B2,
{8}1xh[8:7]/8x,,,,,,,{24}8,7/2,6/3,
{4}5s1[4:1]/4z8[4:1],,,Cfh[4:1]/B3/B4/E4,
{8}1b,1,2h[16:1]/6h[16:1],{16},3,3,5,5,,4h[16:1]/6h[16:1],,,7,
5,5,{24}8,7,6,{16}3h[16:1]/5h[16:1],,,2,2,4,4,,3h[16:1]/5h[16:1],,,7,
7,1,1,,2h[16:1]/8h[16:1],,,3,3,1,1,,4h[16:1]/6h[16:1],,,7,
3,3,{24}8,7,6,{16}3h[16:1]/5h[16:1],,,2,4-1[8:1],4,3,,4x/6h[8:1],,,,
8x,,8,,7h[16:1]/3h[16:1],,{16},6,6,4,4,,3h[16:1]/5h[16:1],,,2,
4,4,{24}1,2,3,{16}6h[16:1]/4h[16:1],,,7,7,5,5,,4h[16:1]/6h[16:1],,,2,
2,8,8,,7h[16:1]/1h[16:1],,,6,6,8,8,,3h[16:1]/5h[16:1],,2,2,
1<5[4:1],,,4,,,2,,{24}1x,8,7,6,5,4,1x,8,7,6,5,4,
{8}7bx-2[8:1]/3bx-6[8:1],,7V15[16:3]/3,,,4-2[8:1],3,4,
1-5[8:1],,7V13[16:3]/1,,6-2[8:1]/7,,4/6,,
1V75[8:2]/5,4V28[16:3]/8,,,,4,1V38[4:1]/5V74[4:1],2/6,
1/5,,,1s5[4:1]/5,,,7-4[8:1]*-2[8:1],,
7,,1/5v7[8:1],2/4,,,4V27[4:1]/8V63[4:1],,
4/8,,,8V62-4[8:3]/4,,,1,,
5v2[8:1]*-8[8:1],4/6,,,1h[4:2],3,4,5V73[4:1],
6,,,,8/4h[4:1],,{32}8x,7,6,5,4,3,2,1,
{8}8b-3[8:1]/4b-7[8:1],,8V26[16:3]/4,,8,5-3[8:1],4,5,
2-6[8:1],1,8V24[16:3]/2,,7-5[8:1]/8,6,3/7,,
2-5[8:1]/6,5V31[16:3]/1,2/6,,7,6,8v3[8:1]/5-7[8:1],1/4,
5/8,,8/4,8V24[16:3]/4,,8/7,7-3[8:1],,
6b,6,5h[8:1]/6,6,8h[8:1]/6,6,2h[8:1]/6,6,
2/1,2/1,7/2,7/2,5/2,5/2,3/2,3/2,
{16}4,4,3,3,2,2,1,1,8,8,7,7,6<6[4:3],6,5,5,
{1}4h[4:4],
{8}A8,E1,E2,A2,,E7,,E3,
,E1,,E5,A6,E7,E8,A8,
A4,E4,E3,A2,,E6,,E2,
,E8,,E4,Ch[4:2],,,,
{8}A5,E5,E4,A3,,E7,,E3,
,E5,,E1,A7,E7,E6,A5,
A1,E2,E3,A3,,E8,,E4,
,E6,,E2,Cfh[4:2],,,,
{8}1b,1/7,{16}2/6,2/6,,3,3,5,5,,4/6,4/6,,7,
5,5,{24}8,4,8,{16}3h[16:1]/7h[16:1],,,2,2,4,4,,3/5,3/5,,7,
7b,1,1,,2/8,2/8,,3,3,1,1,,4/6,4/6,,7,
3,3,{24}8,4,8,{16}3h[16:1]/7h[16:1],,,2,4>1[8:1],4,3,,4x/6,,6,,
8b,,8,,7/3,3/7,,6,6,4,4,,3/5,3/5,,2,
4,4,{24}1,5,1,{16}6h[16:1]/2h[16:1],,,7,7,5,5,,6/4,6/4,,2,
2b,8,8,,7/1,7/1,,6,6,8,8,,5-1[8:3]/3,5/3,,2,
{8}2x,E3,E4,E5,{16}7,3,7,3,{24}E7,B6,B5,E1,B1,B2,
{16}7b,4,,4,7h[8:1],,1,7,,7,1h[8:1],,{24}8-4[12:1],1,2,3,4,5,
{32}6bx/8bx,,,,7,6,5h[16:3],,,,3,2,1h[16:2],,,,{16}5,1,6,2,7,3,8,4,
7-5[12:1],5,,5,7b,,2-8[12:1],4,,4,2,,{24}5,6,7,1,2,3,
{16}4/8V62[16:3],8,,,4,,,5,5-1b[8:1],1,3,7,,,,,
8-6[12:1],2,,2,8,,1-3[12:1],4,,4,1,,{24}7-3[12:1],8,1,2,3,4,
{16}5h[8:1]/7x,,,4x/8h[8:1],,,1/3,,2,4,1,5,3,7,4,6,
5>2[12:1],7,,7,5,,8<5[12:1],1,,1,8,,{24}2,3,4,6,7,8,
{16}5,5,1,1,3,3,7,7,E5,E6,E4,E7,{24}E3,B3,B4,E1,B8,B7,
{16}2b-5[12:1],5,3,5,2,,7-1[12:1],4,8,4,7,,{24}4-8[12:1],5,6,7,8,1,
{16}2h[8:1]/4x,,,5h[8:1]/7x,,,4/8
,,3,1,2,6,8,7,4,5,
3-8[12:1],4,2,4,3,,7-4[12:1],1,6,1,7,,{24}1,2,3,5,6,7,
{16}8/4V26[16:3],4,,,8,,,1,1,5,7,3,8,4,6,2,
7-4[12:1],8,6,8,7,,2-8[8:1],5,1,5,2,,{24}6-2[12:1],5,4,3,2,1,
{16}8h[8:1]/6x,,,5h[8:1]/1x,,,2/4,,{16}7,5,6,1,3,2,8,4,
7<4[12:1],8,6,8,7,,2>5[12:1],1,3,1,2,,{24}6,7,8,2,3,4,
{16}1,8b/2b,,6/5,7b/4b,,8/1,7/2,C,,,,B8/B3,,,,
{16}6/5,,4,6h[8:1],,3,5,2,4h[16:3],,,3h[16:3],,,2,,
{1}2pp8[4:3]/1,
{8}7h[8:3],,6,6h[8:3],,5,5h[8:8],,
{4}A7,C,A3,B2,
{16}1,4,3,4,2,6,5,6,4,4,8,5,7,4,6,3,
8,5,6,5,7,3,4,3,5,5,1,4,2,5,3,6,
5p1[8:1]/7,,,8,5,,6,,4q8[8:1]/2,,,1,4,,3,,
{16}7,4,6,3,8,2,1h[16:6],{32}3,4,{16}5bx,,,,5,8,2,4,
{4}1b-6[8:1]/5b,2/1v4[8:1],{16}5,,7,7,3,8,1,6,
{4}5>2[8:1]/2,5p1[8:1]/6,{8}3,3h[4:1],8,{16}1,1,
4h[16:2],,2,5h[16:2],,7,4h[16:2],,2,5h[16:2],,6,1h[16:2],,3,8h[16:2],
,6,1h[16:2],,4,1,5,2,6,3,7,4,{24}8,7,6,1,2,3,
{8}8h[4:1],5,{24}6,7,8,1,2,3,{16}4h[16:3]/5,,8,8h[16:3],,5,5,,
8,4,6,2h[16:3],4,,5,1,7,3h[16:3],1,,8,4,6,2,
{8}1h[4:1]/8,4,{24}3v8b[8:1],2,1,8,7,6,{4}3x/5h[4:1],{8}1,{16}1,5,
4/2,,6,5/6,,3,3/4,,1/5,,7,6/8,,1,2/8,,
{24}3b/7b,,,4,6,4,{16}8,8,2,6,5,5,7,3,5,5,1,1,
{24}7,3,7,3,7,3,6>3b[8:1],5,6,5,6,5,{16}6,,,1,2/8,,,,
{24}8,4,6,{16}2,2,{8}3x/1x,{16}4,8,8,2,4,8,8,6,{24}3,4,3,
{16}2/5,,6,6,8,8,1,1,{24}3,8,4,7,5,6,{32}4,3,2,1,8,7,6,5,
{4}4bh[8:3]/8bh[4:2],,{24}6,7,6,7,6,7,6,7,6,7,6,7,1-5<7-4[4:3],
