&title=AVALON
&artist=sasakure.UK
&first=0
&des=KuSA
&lv_5=13
&inote_5=(200)
{1},
{4}
,,1h[4:7]/8h[4:15],,,,,,,,6h[4:10],,,,,,,,4h[4:6],,,,2h[4:6],,,,7h[4:4],,,,
1h[2:3],,,,,,8qq5[4:7]*pp3[4:7],,,,,,,,,,,,,,,
{384},,,,,,,,,,,,,,,,,,,,
{8}
6bp3[6:2],6,2,2h[4:2],,,,4h[4:1],,3,4-6[8:1],,2,,
3,3q5[6:2],7,7h[4:2],,,,5h[4:1],,6,5-3[8:1],,7,7,
6,5h[4:1]/6-8[8:1],,6,5-2[8:1],,5,7h[4:1],,3,3-7[8:1],,7-2[8:1]*-4[8:1]/3,,,,
3,4h[4:1]/3-1[8:1],,3,4-8[8:1],,4,2,
{16}
2,1,2,1,2h[8:1],,7,8,7,8,7,8,6,1,5,2,4b/3b,,
2h[8:5]/5-8[8:1],,,,5,,,,,,8,,1>4[8:1]/7,,,,7,,7,,8<5[6:1],,6>3[6:1],,4>7[6:2],,2h[8:3],,,,,,,,
2-6[8:1],,,,,,5-3[8:1],,,,1,,1-7[8:1],,,,6,,6,,
3,,2h[4:1]/4-8[8:1],,,,4,,2>5[8:1],,,,2,,7h[4:1],,,,6,,6-2[8:1],,,,2-4[8:1]*-7[8:1]/6,,,,,,,,
6,,7h[4:1]/5-1[8:1],,,,5,,7<4[8:1],,,,7,,3,,
2,1,2,1,2h[8:1],,7,8,7,8,7,{24}6,5,4,3,2,1,8,7,
{16}
6h[4:1]/2b,,3,,4,,5h[8:1]/6h[4:1],,,,,,
6h[4:1]/2,,3,,4,,5h[8:1]/7h[4:1],,,,,,6/1h[8:1],,6,,
7h[8:1]/8h[4:1],,,,,,2h[4:1]/4h[8:1],,,,,,3h[8:1]/7h[4:1],,,,,,1h[4:1]/5,,5<8[8:1],,5,,{24}1,2,3,
{16}
4,,7h[4:1]/6h[8:1],,,,,,3h[4:1]/5h[8:1],,,,,,2h[8:1]/6h[4:1],,,,,,8h[4:1]/4,,4>1[8:1],,4,,{24}8,7,6,
{16}
5,,1,,2,,3/4,,7,,6,,5/4,,3,,2,,1/8,,2v1[8:1]/7v8[8:1],,8<5[8:1]/1>4[8:1],,,,,,,,
3h[4:1]/7,,6,,5,,4h[8:1]/3h[4:1],,,,,,
3h[4:1]/7,,6,,5,,4h[8:1]/2h[4:1],,,,,,3b/8h[8:1],,3b,,2h[8:1]/1h[4:1],,,,,,
7h[4:1]/4h[8:1],,,,,,3h[4:1]/6h[8:1],,,,,,2h[8:1]/5h[4:1],,,,,,1/8,,1/8,,
7-3[8:1],,1,,7,,2-6[8:1],,8,,2,,7-4[8:1],,1,,7,,2,,2>5[8:1],,2,,{24}6,7,8,
{16}
1,,3bV15[8:3]/7b,,,,,,5v3[4:1],,6h[8:3],,,,,,,,6,,,,6/5-8[8:1]*-2[8:1],,,,5,,,,,,3,,
3V15[8:3],,,,,,5v2[4:1],,6h[8:3],,,,,,,,6,,,,6/5-8[8:1]*-3[8:1],,,,5,,,,,,1,,
1>8[4:2],,,,,,6,,6h[8:3],,,,,,,,6V85[4:1],,,,6/5-1[4:1],,,,1,,,,3,,3,,4/5,,4/5,,3v4[8:1]/6v5[8:1],,4<7[8:1]/5>2[8:1],,,,,,,,
{1}
8bs4[8:17]/1bz5[8:31],,,,
{16}
,,4,,,,5h[16:12]/4,,,,2h[8:1],,,,3h[8:1],,,,4,5,4,,7,,7,,2,,1,,8/3,,,,7,,8,,
1h[16:12]/6,,,,6h[8:1],,,,7h[8:1],,,,8,1,8,,3,,3,,
4h[8:1],,3,,5h[8:1],,4,,6h[8:1],,5,,7h[8:1],,6,,8h[8:1],,7,,6,,6/5,,4/5,,3/4,,
2>6[4:1],,2,,6V42[4:1],,6,,,,,,7V53[4:1],,7,,3<7[4:1],,3,,,,,,
1h[8:4],,,,8,,8,,8,,,,7h[8:4],,,,3,,3,,3,,,,4qq4[8:4]/5h[8:4],,,,,,,,,,,,5,,,,6,,,,7/2,,,,
8bV63[4:1]/1,,,,1,,,,2V48[4:1],,,,,,,,6V82[4:1],,,,5,,,,4V25[4:1],,,,,,,,
6h[8:3],,,,5,,5h[8:3],,6,,7h[8:2],,,,5,,7,,6h[8:2],,5,,4h[8:2],,5h[8:1],,,,5/4,,,,
2-4[8:1]/6,,,,5,,,,6-4[8:1]/3-7[8:1],,,,,,,,2-4[8:1]/6,,,,7,,,,8-2[8:1]/3-7[8:1],,,,,,,,
2-4[8:1],,,,2/1,,,,1-5[8:1],,,,1/8,,,,8-6[8:1],,,,8/6,,,,5,,,,4h[4:1]/6,,,,
7bV53[4:1],,,,3,,,,2V48[4:1],,,,,,,,6V84[4:1],,,,2,,,,1,,1>4[6:1],,3<6[6:1],,5<2[3:1],,7h[8:3],,,,,,,,
7p3[8:1],,,,3,,,,2p6[8:1],,,,6,,,,5V74[4:1],,,,,,,,
3h[8:3],,,,4,,4h[8:3],,3,,2h[8:2],,,,4,,2,,3h[8:2],,4,,5h[8:2],,4h[8:1],,,,4h[8:1]/5h[8:1],,,,
{24}1/8z4[8#50:1],2/7,3/6,4/5,,,
{4},,,,,{8},
{6}2h[64:1],,,,,3h[64:1],,,,,4h[64:1],,,,,5h[64:1],,,,,6h[64:1],,,,,7h[64:1],
{8},,,,,,,,,,,
{16}
1,8,1,8,1,8,2b-7[8:1]/7b,,,,7/2,,6-4[8:1],,,,1/6,,2-4[8:1],,,,2/5-1[8:1],,,,5/8-4[8:1],,,,8/5-7[8:1],,,,5,,,,
8/3-6[8:1],,,,3/6,,7-1[8:1],,,,7/2,,3-1[8:1],,,,3-5[8:1]/7-5[8:1],,,,
3-1[8:1]/7-1[8:1],,,,3-7[8:1]/7-3[8:1],,,,,,,,
8-4[8:1]/4,,,,8/3,,2-6[8:1],,,,2/7,,8<5[8:1],,,,8>3[8:1],,,,8-5[8:1],,,,8-3[8:1],,,,8<5[8:1],,,,
4,3,2,1,8,7,6,5,4,3/7,8,1,2,3,4,5,8,7,1,6,2,5,3,4,3-6[8:1]*-8[8:1],,,,3,,,,
4h[4:1]/7,,6,,5,,4h[4:1]/3,,3,,3,,4h[4:1]/7,,6,,5,,4h[4:1]/3,,3,,2,,1h[8:1]/6,,6,,
7<4[8:1],,1,,7,,2>5[8:1],,8,,2,,7-3[8:1],,5,,7,,2-6[8:1],,4,,2,,5,,5<8[8:1],,5,,{24}1,2,3,
{16}4-8[8:1],,,,4b/8V24[4:1]*V64[4:1],,,,,,,,,,,,
{24}5q2[8:1]/4,,,1,2,3,4,,,,,,4p7[8:1],,,8,7,6,5,,,,,,5,,,1/5,2/6,3/7,4p7[8:1]/8p3[8:1],,,,,,,,,,,,
{16}
1h[2:1]/5b,,,,,,,,8,1,8,1,8,1,8,1,2-4[8:1]/7-5[8:1],,,,2/7-3[8:1],,,,7b/3,,
1,2,3,4,5/6,7,8,1/2,3,4,5,6,7,8,5/1-5[8:1],,,,1/5,,7-3[6:1],,,,7/3,,1-5[8:1],,,,1/6,,
8,7,6,5,4,3,2,1,8,7/3,4,5,6,7,8V24[8:1]/5,,,,8/7,,5V71[8:1],,,,4/5,,2>5[8:1],,,,2/5,,
7,8,1,2,3,4,5,6/2,1,8,7,6,5,4,3>8[8:1]/7,,,,3/4,,6q2[8:1],,,,5/6,,3h[8:2],,,,4,,3-8[8:1],,
4,,3,,6v1[8:1],,5,,6,,3-7[8:1],,8,,3,,6,,5<8[8:1],,5,,{24}8,1,2,3,4,5,6,7,8,
{16}1b-5[8:1],,,,1/6,,7>2[8:1],,,,7/3,,4-1[8:1],,,,4<7[8:1],,,,4>1[8:1],,,,
4b-7[8:1],,,,4b,,,,8/2-7[8:1],,,,2/7,,6-3[8:1],,,,6/3,,2-4[8:1],,,,
2b/1-5[8:1],,,,1b/8-4[8:1],,,,7-5[8:1]/8b,,,,7b/5b<4[8:4]*p4[8:4],,,,,,,,,,,,,,,,
7/1q5[8:1],,{24}5,6,7,{16}8,,,,8p4[8:1],,{24}4,3,2,{16}1,,,,1,,{24}15,62,73,
{16}4-1[8:1]/8-5[8:1],,,,8/4,,,,8-3[8:1]/4-7[8:1],,,,8/4,,,,
4,5,3,6,2,7,1,8,
{32}1,2,3,4,5,6,7,8,1/5,4,3,2,1,8,7,6,{4}5b<4[4:5]/1bs5[4:5],,,,,,,
2p3[4:5]/5<2[4:5],,,,,,,1h[16:42],,,,8h[16:26],,,,,,,1s5[4:3]*s5[4:3]/8,E
