&title=Arcana Idola
&artist=紅葉月梛葉
&first=0.09999999
&des=NekoMuseigen
&des_5=NekoMuseigen
&wholebpm=200
&lv_5=14
&inote_5=(200)
{1},
{8},{4}1s5[4:17],,,,,,,,,,,,,,,,,,,
{8}
,4b/6h[8:5],,,,,5,6,5,7h[8:6]/4,,,,4,,,,6h[8:4]/3,,,,4,,,5,4h[8:4],,5,,,
4,5,4,3h[8:6]/6,,,,7,,7,,8/2h[8:6],,8,,7,,6,,5p4[8:6]/1,,,,,,,,1p8[8:6],,,,,,,,
6,,56,,47,,2,1,2,1,2-6[8:2],,8,,,,
3,,34,,52,,7,8,7,8,7-3[8:2],,2,,,,
5,,45,,36,,1,8,2,7,3<6[8:2],,6,,,,1b/8b,,
{16}1,2,3,4,5,6,7,8,1,2,3,4,7,6,5,4,3,2,1,8,3,2,1,8,7,6,5,4,
{8}
3b/7bV58[16:5],,5,,,2,2h[8:2],,3V15[16:5],,1,,,4,4h[8:2],,
6V47[16:5],,4,,,1,1h[8:2],,3V58[16:5],3,2,2,,1,1,,
6V84[4:1],,8,,,1,15,,4/3V15[4:1],,1,,,7,74,,
1/8V26[4:1],,2,,,3,35,,8/1V73[4:1],,7,,,6,6/4<8[16:3],,
4b/3,,,
{16}1,2,3,4,5,6,7,8,1,2,
{16}6,7,8,1,5,6,7,8,4,5,6,7,3>8[16:2],,,,
3b/4,,,,,,
{16}7,6,5,4,3,2,1,8,7,6,
{16}3,2,1,8,4,3,2,1,5,4,3,2,6b,,,,
{16}5,3,5,3,6,2,6,2,7,1,7,1,8h[16:3],,,,2,8,2,8,3,7,3,7,4,6,4,6,
{16}5>2[8:1],,,,5b,,{16},,7,6,5,4,{16}1,2,3,4,
{16}1,2,3,4,
{24}1,2,3,8,7,6,{24}2,3,4,7,6,5,{24}1-5[8:1],2,3,8,7,6,1b,,,,,,
{8}8,8-5[8:1],,3-8[8:1],3,,4h[48:12],,{12}1,4,3,8,5,6,
{8}2-6[8:1],2,,5-1[8:1],5,,4h[8:2],,{12}8,5,6,1,4,3,
{8}8,8-4[8:1],,3-7[8:1],3,,6>3[8:1],,5b,,1,,56,57,,34,24,,
1h[4:3]/8,,7,,6,,{4}5pp1[4:10],,,2h[1024:1],,,3h[1024:1],,,4h[1024:1],,,
5qq2[4:10]*<1[4:5],,,,,,,,,,,,4h[1024:1]/5v3[16:5],,,,3h[1024:1]/6v3[16:5],,,,
2h[1024:1]/7-3[16:5],,,,1h[1024:1]/8v3[16:5],,,1,
{16}3h[4:1]/7b,,,,4,3,4,3,4,5,6,7,2,3,4,5,6b/8h[8:2],,,,
6,8,6,8,6,5,4,3,7,6,5,4,{12}1b,6h,4h,8h,3h,5h,2h,7h,5h,6h,3h,4h,
{24}
1,2,3,4,5,6,
7,8,1,2,3,4,
8,7,6,5,4,3,
2,1,8,7,6,5,
{8}4-8[8:1]/3-7[8:1],,4b/3b,,{16}1-4[8:1],,7-2[8:1],,1,,7,,,,
{16}
5,4,3,2,6,5,4,3,2,1,3-6[8:1]/8,,,,3/7-2[8:1],,,,7b,,,,5<8[8:1],,
4,,3,,2>5[8:1],,,,2b,,,,6,,5,,4,,3,,8h[16:6]/1-5[8:1],,,,,,,,
8,7,6,5,1,2,3,4,5b-1[8:1]/6,,,,,,8,,,,6,5,4,3,2,1,8b/3b,,,5,
3,4,3,5,4,5,
3,4,3,5,4,5,
3,4,2b<6[8:1],,6b>2[8:1],,2,,,,,,
{24}7,6,5,4,3,2,1,8,7,
{16}6-1[8:1]/2-5[8:1],,,,6b/2b,,,,
8-5[8:1],,2-7[8:1],,8,,2,,,,
{16}
4,5,6,7,3,4,5,6,7,8,1/6-3[8:1],,,,6/2-6[8:1],,,,2b,,,,8,,7,,64,,5b/3b,,
{24},,,,{48}8b,7,6,5,,,,,2b,3,4,5,,,,,7b,6,5,4,,,,,1b,2,3,4,,,,,
{12}6b,,{16}3b/8b,,,,3,4,2,5,1,6,8,7,
8,7,
6b,7,6,7,
6,5,4,3,8,7,6,5,
2b,4,2,4,
1b,8,1,8,
1,8,2b,1,2,1,2,
7b,8,6,8,5,
{16}8,4,8h[8:2],,,,
{32}4,5,6,7,8,1,2,3,{32}4-8[8:1],5,6,7,8,1,2,3,{8},,
{8}
2>5[16:2],,2,7V58[8:2],,7,3,2V41[8:2],,
2,6,7<4[8:1],,7,3,2,1q4[16:6],,4b,,,5,6,7-2[8:1],,
5,4,3-8[8:1],,4,5,6,
7b<4[16:2],,7,2V41[8:2],,2,6,7V58[8:2],,
7,3,2>5[8:1],,2,6,7,8p5[16:6],,4b,,,3,2,1<6[16:2],,
5,4,3>8[8:1],,6,5,4,
8b-5[8:1],,8,2-4[8:1],4,2-6[8:1],6,2-8[8:1],8-3[8:1],
2,7,7-5[8:1],,7-3[8:1],3,7,1p8[8:2],,8b,,,6-1[8:1],5,6,,
3-8[8:1],4,3,,7,5,6,
1b-4[8:1],,1,7-5[8:1],5,7-3[8:1],3,7-1[8:1],1-6[8:1],
7,2,2-4[8:1],,2-6[8:1],6,2,8q1[8:2],,1b,,,3>8[8:1],5,3,,
2<7[8:1],4,2,,1<6[8:1],3,
{4}1b>1[8:22],,,,,,,,,,,,,
{32}6b,5b,4b,3b<3[8:17],,,,E
