&title=emomomo[SD]
&artist=Ras
&first=0
&lv_5=13+
&des_5=GDTape
&inote_5=
(145){4},,,,3/5,
{8}1,{16}6,5,,7/4,,2h[8:1],,6,,,{4}7/3,
{8}4/8h[4:1],{24}4,3,2,{16}1,,,2/6,,,{8}5/1,
{4}3/6,{8}8,{16}3,6,,2/5,,7h[8:1],,3,,,{8}6/1,
{16}3,2/5,,6,{8}7/4,1/5,6,{24}1,2,3,7,6,5,
{4}4/8,{8}2/6,{24}2,3,4,{16}6,6,,1h[8:1],,5,,,{4}3/7,
{8}6/2h[4:1],{24}6,7,8,{16}1,,,3/5,,,{8}4/6,
{4}8/2,{8}7/3,{24}7,6,5,{16}3,3,,8h[8:1],,4,,,{8}2/6,
{16}4,3/7,,5,{8}6/2,4/8,2,{24}8,7,6,2,3,4,
{8}5/1,{16}7,7,{8}4,3/5,{16}4>2[8:1],6,{8}3,5,7,
6/1,{16}5,5,{8}4,6/3,{16}7<5[8:1],2,{8}6,1,1,
{4}2-4[8:1],{8}5/2,6,{4}7-1[8:1],{8}7/3pp2[2:1],3,
{4}7h[8:1],7h[8:1],{8}6<8[8:1],1,6,2,
4/8,{16}2,2,{8}5,6/4,{16}5<7[8:1],3,{8}6,4,2,
3/8,{16}4,4,{8}5,3/6,{16}2>4[8:1],7,{8}3,8,8,
{4}7-5[8:1],{8}4/7,3,{4}2-8[8:1],{8}2/6qq7[2:1],6,
{4}2h[8:1],2h[8:1],{8}3>1[8:1],8,3,7,
5/1,{16}7,7,{8}6/8,2/5,{16}3,4,2,5,{8}3,8/4,
3/7,{16}5,5,{8}4/6,7/3,{16}6,4,5,4,{8}6<8[8:1],2,
{4}3/6-2[8:1],{8}3-1[8:1]/6-4[8:1],4,{4}6/3-7[8:1],{8}3/6>4[8:1],5,
8,8,1>4[8:1],1,5-7[8:1],5-3[8:1],,,8,
{16}2,2,{8}3/1,7/4,{16}6,5,7,4,{8}6,1/5,
6/2,{16}4,4,{8}5/3,2/6,{16}3,5,4,5,{8}3>1[8:1],7,
{4}6/3-7[8:1],{8}6-8[8:1]/3-5[8:1],5,{4}3/6-2[8:1],{8}6/3<5[8:1],4,
1,1,8<5[8:1],8,4w8[8:1],4,,,{4}2/6,
{8}3,{24}5,4,5,{16}3,3,,6,,2h[16:3],,,{4}4,
{8}3,{24}6,4,6,{16}4,,,7h[16:3],,,{8}5,
{4}4,{8}7,{24}3,5,3,{16}6,6,,1h[8:1],,5,,,{8}3,
{16}6,4,,3,{8}5,2h[8:1],6,{24}4,5,4,5,4,5,
{4}3,{8}6,{24}4,5,4,{16}6,6,,3,,7h[16:3],,,{4}5,
{8}6,{24}3,5,3,{16}5,,,2h[16:3],,,{8}4,
{4}5,{8}2,{24}6,4,6,{16}3,3,,8h[8:1],,4,,,{8}6,
{16}3,5,,6,{8}4,5/3,5/3,4/7,5/2,
{16}1,2,3,4,8,7,6,5,3,4,3,5,4,6,5,6,
2,3,4,5,7,6,5,4,1,8,2,7,4,5,3,6,
4,3,2,1,5,6,7,8,2,1,2,1,3,4,2,5,
1,2,3,4,8,7,6,5,2,4,3,4,3,6,5,7,
1,2,3,4,8,7,6,5,3,4,3,5,4,6,5,6,
2,3,4,5,7,6,5,4,1,8,2,7,4,5,3,6,
4,3,2,1,5,6,7,8,2,1,2,1,3,4,2,5,
1,2,3,4,8,7,6,5,{8}4/3,1/2,7qq1[1:3]/8>4[1:3],5/6,
{1}7b/8b,
,,,{16}4,
5,4,5,,,,,,,,,,,,,5,
4,5,4,,,,,,,,,,,,,1,
8,1,8,,,,,,,,,,,,,1,
,,2/6,,3,5,4,8,8,{8}2h[8:1],5,6,
{4}2-5[8:1],1,7-4[8:1],8,
1-5[8:1],8,8-4[8:1],1,
2>5[8:1],7,6<1[8:1],3,
2-5[8:1],2/6,6-1[8:1],6/2,
{8}3,4,5,6,7,8,1,2,
{16}6,5,7,7,3,4,2,2,6,4,8,8,3,5,1,1,
{32}7,6,5,4,3,2,1,8,7,6,5,4,3,2,1,8,4,5,6,7,8,1,2,3,4,5,6,7,8,1,2,3,
{2}4/8,{16}1/5V38[16:3],2/6,{8}7/3,5b/1,7,
7b<4[8:1],{16}3-1[8:1],3,{8}7-3[8:1],3,{16}7,8,{8}8,4-1[8:1],3/5,
{16}4,6,{8}6,7qq8[8:3],{16}3,3,{8}7,2,1,1,
2-5[8:1],{16}5,6,{8}7/2,1,{16}4/8-4[8:1],7/3,{8}6/2,8,5,
2/6,{16}5,6/4,,3,4,2,{8}8-4[8:1],7/1,8b,3,
2b>5[8:1],{16}6-8[8:1],6,{8}2-6[8:1],6,{16}2,1,{8}1,5-8[8:1],6/4,
{16}5,3,{8}3,2pp1[8:3],{16}6,6,{8}2,7,8,8,
7-4[8:1],{16}4,3,{8}2/7,8,{16}5/1-5[8:1],2/6,{8}3/7,1,4,
7/3,{16}4,3/5,,6,5,7,{8}1-5[8:1],2/8,1b,6,
8b<5[8:1],{16}4-2[8:1],4,{8}8-4[8:1],4,{16}8-5[8:1],1,{8}1,8-3[8:1],3,
{16}8<5[8:1],4,{8}4,8qq1[8:3],{16}3,3,{8}8,2,3,4,
2-5[8:1],{16}5,6,{8}7/2,1,{16}4/8-4[8:1],7/3,{8}6/2,8,5,
2/6,{16}5,6/4,,3,4,2,8-4[8:1],1,7,2,{8}8b,3,
1b>4[8:1],{16}5-7[8:1],5,{8}1-5[8:1],5,{16}1-4[8:1],8,{8}8,1-6[8:1],6,
{16}1>4[8:1],5,{8}5,1pp8[8:3],{16}6,6,{8}1,7,6,5,
7-4[8:1],{16}4,3,{8}2/7,8,{16}5/1-5[8:1],2/6,{8}3/7,1,4,
7/3,{16}4,3/5,,3,7-5[8:1],1,{2}5-2[8:1]*-3[8:1],
{16}8,,,3h[16:3],,,{8}4,{16},6,5,7,{8}4,6,
{16}3,5,{8}4,2,{16}5,5,,,{8}4,6,3,
{16}5,4,5,4,,,{8}7h[16:3],{16},4,,,{8}3,5,
{16}4,,,6,,4,5,4,{8}5,3,7,1,
{16}2/6,,,6h[16:3],,,{8}5,{16},3,4,2,{8}5,3,
{16}6,4,{8}5,7,{16}4,4,,,{8}5,3,6,
{16}4,5,4,5,,,{8}2h[16:3],{16},5,,,{8}6,4,
{16}5,,,6/4,,,{8}5/2,1/8,1/8,{24}1/8,2/7,3/6,4/5,
E
