&title=秘密
&artist=(朵鲁妲)中原麻衣
&first=0
&des=Mare
&wholebpm=70
&des_5=Fine
&lv_5=13+
&inote_5=(70)
{4},
,,,
{16}2,,3,6,4qq3[8:1],,7,,5h[8:1],,,,
{16}7,8,1<6[8:1],2,3,,1>4[8:1],3,,7,1qq8[8:1],,8>4[16:3],,1,,
{16}4,5,6,7,8h[4:1],,2,3,4>1[8:1],,1qq8[8:1],,8,,4,,
{16}5,6,7,8h[16:4],1,,1pp5[4:1],2,,37,5<8[8:1]/1,,8b,,,,,,,,
{16}4-1[16:1],4-7[16:1],4-8[16:1],,,,,,
{16}1q5[8:1],,,,7>4[8:1],,,,7/4,,1,,2>5[8:1],,5-1[8:1],,1<6[8:1],,6-2[8:1],,,,5h[16:1],,
{16}5-8[16:1],5-2[16:1],5-1[16:1],,,,,,
{16}8p4[8:1],,,,2<5[8:1],,,,2/5,,8,,7<4[8:1],,4-8[8:1],,8>3[8:1],,3-7[8:1],,,,,,
{16}1-4[16:1],1-6[16:1],1-5[16:1],,,,,,
{16}1<5[8:1]/4-2[16:1],,,,14,,1h[16:1],,
{16}8<6[16:1],8-4[16:1],8-5[16:1],,,,,,
{16}4>8[8:1]/7-5[16:1],,,,47,,4w8[16:1],4,,,,,
{16}8-5[16:1]/2,16,{32},,{48},1,2,3h[8:1],,,{16},,,
{16}1-4[16:1]/7,83,{32},,{48},8,7,6h[8:1],,,{16},,,
{16}4-1[16:1]/2,5<8[8:3]/7,{32},,{48},2,3,4,,,
{16},2-6[16:1],3,,3,2,,
{8}57,6,2/4,3,4h[8:1],8,47,36,2/4,5/7,
{16}45,3,2,1,8b-5[8:1],7,6,,8>4[8:1],1,2,,
{16}8qq7[8:1],6,5,,8q4[8:1],2,3,,8-5[8:1],7,6,,8<6[16:1]v4[16:1]*>2[16:1]v4[16:1],1,3,,8,,,,
{16}54,6,7,8,1b>4[8:1],2,3,,1p5[8:1],8,7,,
{16}1pp2[8:1],2,4,,1<6[8:1],8,7,,1-4[8:1],2,3,,1>3[16:1]v5[16:1]*<7[16:1]v5[16:1],8,6,,1,,,,
{16}5h[16:4],4,3,2,1bpp1[8:1],8,7,,8-5[8:1],7,6,,1pp3[8:1],2,3,,8<5[8:1],6,7,,1>4[8:1],3,2,,8z4[8:1]*-5[8:1],7,6,,8,,,,
{16}4-8[16:1]*pp5[8:1],35,{32},,{48},2,3,4,,,{16},,,
{16}5-1[16:1]*qq4[8:1],64,{32},,{48},7,6,5,,,{16},,,
{8}1v7[8:1]-5[16:1]/8v2[8:1]-4[16:1],45,18,,
{16}3h[16:3],5,6,7,4h[16:3],6,7,8,37,26,1b/8b,,
{16}8qq4[8:3],,,,3,,4>2[8:1],,2<5[4:1],,,,{16}5qq8[4:1],3,2,1,
{16}8<4[4:1],,,1,,,2,,
{16}3>8[8:1],,,,7,6,5,,
{16}1pp5[8:3],,,,6,,5<7[8:1],,7>4[4:1],,,,{16}4pp1[4:1],6,7,8,
{16}1>5[4:1],,,8,,,7,,
{16}6<1[8:1],,,,2,3,4,,
{16}8pp6[8:3],,,,4,,6>3[8:1],,3s7[4:1],,,,{16}7s3[4:1],8,1,2,
{16}3<6[4:1],,,2,,,1,,
{16}8>3[8:1],,,,7,6,5h[8:1],,
{4}2>4[16:1],8<6[16:1],1>3[16:1],7<5[16:1],7/1>4[16:1],1/7-3[16:1],7/2V46[8:1],2/7V53[8:1],7/2<6[8:1],
{16}2/8v6[16:1]>4[16:1]*v2[16:1]>4[16:1],,,,8,,,,
{16}35,4,27,6,1b/7b<4[8:1],6,5,,8-3[8:1]/7,1,2,,
{16}5<8[8:1]/8,4,5,,5/3qq8[4:1],4,3,,3/8pp4[4:1],7,6,5,6,7,6,5,
{16}5<7[16:1],7-3[16:1],3<5[16:1],5-1[16:1],,,,,
{16}4b>1[8:1],3,2,,4/5-8[8:1],6,7,,5>2[8:1],4,3,,5/6pp1[4:1],7,6,,
{16}6/1qq5[4:1],2,3,4,3,2,3,4,
{16}4-8[16:1],8<6[16:1],6-2[16:1],2<8[16:1],,,,,
{16}5bpp7[8:1],6,7,,5/3>8[8:1],4,3,,
{16}3/7-4[8:1],6,5,,7/2qq1[8:1],1,2,,2/4<8[8:1],5,4,,4/2-6[8:1],3,4,,2/8,,,,
{16}4qq4[8:1]*pp4[8:1],71,{32},,{48},26,35,4,,,{16},,,
{16}5pp5[8:1]*qq5[8:1],28,{32},,{48},73,64,5,,,
(60)
{16},,,
{8}1v7[8:1]-5[16:1]/8v2[8:1]-4[16:1],45,
{16}18,,,,,,,
(70)
{16}8<5[4:1],,,,1,2,3,4,
{16}4>1[4:1],,,6,,,7,,
{16}8-5[4:1],,,,1,2,3,,4-1[4:1],,5,6,7,,8,,8h[4:2],,,,1,2,3,4,
{16},,,,7,,,,3,,,,,8b<5[16:8],
{4},,
{32},,,2,3,4,
