&title=Endless Dream
&artist=Shiki
&first=0.424
&lv_5=14
&des_5=YouPlus
&inote_5=
(182){8}6h[4:3],3,2,1,{4},,,1/8,
{8},8/1,{4},{8}6/8,
{4},,,{8}4/5,
{1}4/5h[4:11],
,{4}4,
4,4,1b,
{8}7h[8:1],4,5h[8:1],4,7-2[16:1],4,,4,
6h[8:1],4,8h[8:1],4,6-3[16:1],1,,1,
7h[8:1],4,5h[8:1],4,7-2[16:1],4,,4,
6h[4:1],4,4,6h[4:1],{4}4-1[16:1],4/6h[8:1],
{8}1-6[16:1],4,{4}1,{16}5/1-4[16:1],{8},{16}5,{8}1,5,
1-6[16:1],4,{4}1,{16}5/1-4[16:1],{8},{16}5,{8}1,5,
8-3[16:1],7,{4}8,{16}6/8-5[16:1],{8},{16}6,{8}8,6,
8-3[16:1],7,8,6,8-5[16:1],7,{4}8b,
{8}2h[8:1],5,4h[8:1],5,2-7[16:1],5,,5,
3h[8:1],5,1h[8:1],5,3-6[16:1],8,,8,
2h[8:1],5,4h[8:1],5,2-7[16:1],5,,5,
3h[4:1],5,5,3h[4:1],{4}5-8[16:1],5/3h[8:1],
{8}8-3[16:1],5,{4}8,{16}4/8-5[16:1],{8},{16}4,{8}8,4,
8-3[16:1],5,{4}8,{16}4/8-5[16:1],{8},{16}4,{8}8,4,
1-6[16:1],2,{4}1,{16}3/1-4[16:1],{8},{16}3,{8}1,3,
1-6[16:1],2,1,3h[8:1],{4}1-4[16:1],1b/3h[8:1],
{8}1h[8:1],4,1h[8:1],3,1b,{16}2,8,1,8,{8}1,
5h[8:1],8,5h[8:1],1,5b,{16}2,5,4,5,{8}4,
8h[8:1],5,8h[8:1],4,8b,{16}3,8,1,8,{8}1,
4h[8:1],1,4h[8:1],8,4b,{16}7,8,1,2,{8}3,
8h[8:1],3,8h[8:1],4,{4}8b/3V52[8:1],{16}3/8,7,{8}6,
5h[8:1],2,5h[8:1],1,{4}5b/2V83[8:1],{16}2/7,6,{8}5,
4h[8:1],8,4h[8:1],1,{4}4-8[16:1],2b,
{8}7/4,4,6/5,6,7/4,4,3/6,3,
2/6,1/5,8/4,3h[4:1]/7h[4:1],{4},{32}3b/7b,8/4,1/5,2/6,{8}3/7,
7h[8:1],8,7h[8:1],6,7h[4:1],8,1,2,
3h[8:1],4,3h[8:1],2,3h[4:1],4,5,6,
7h[8:1],8,7h[8:1],6,7h[4:1],8,1,2,
3h[4:1],1,8,7h[4:1],1-5[16:1],2,{4}1b/3h[8:1],
{8}2,{16}6,4,{8}5,{16}3,5,{8}4,{16}7,5,{8}6,{16}2,4,
{8}3,{16}8,5,{8}6,{16}1,4,{8}3,{16}8,4,{8}5h[8:1],1h[8:1],
6h[8:1],2h[8:1],7h[8:1],3h[8:1],8h[8:1],4h[8:1],1h[8:1],5h[8:1],
{4}1-5[4:1],5pp5[8:3]*qq5[8:3],{2},{8}2h[8:1],
1,2h[8:1],3,2h[4:1],1,8,7,
6h[8:1],5,6h[8:1],7,6h[4:1],5,4,3,
2h[8:1],1,2h[8:1],3,2h[4:1],1,8,7,
6h[4:1],8,1,2h[4:1],8-4[16:1],7,{4}8b/6h[8:1],
{8}7,{16}3,5,{8}4,{16}6,4,{8}5,{16}2,4,{8}3,{16}7,5,
{8}6,{16}1,4,{8}3,{16}8,5,{8}6,{16}1,5,{8}4h[8:1],8h[8:1],
3h[8:1],7h[8:1],2h[8:1],6h[8:1],1h[8:1],5h[8:1],8h[8:1],4h[8:1],
8h[4:1],7,6,5h[4:1],1,2,3h[8:1],5h[8:7],
{32}4h[4:3],{4},,,{32}3/6,2/7,1/8,{8},8h[4:1]/1pp4[4:5],
{4},{8}7,{2}7h[1:1],
{4},,{8},5,6,7,
8h[4:1]/1pp4[4:5],{4},{8}7,{2}7h[4:1],
{8}8h[4:1],{4},{8}7h[4:1],{4},6h[8:1],
1-4[16:1]/5-8[16:1],5/1,4-1[16:1]/8-5[16:1],4/8,
2v7[16:1]/6v3[16:1],2/6,3v6[16:1]/7v2[16:1],7/3,
1v4[16:1]/5v8[16:1],1/5,{2}8v5[16:1]/4v1[16:1],
{1}1>5[2:1]/5<1[2:1],
{12}1,8,7,2,3,4,1,8,7,2,3,4,
1,8,7,1,2,3,8,7,6,7,6,5,
6,7,8,4,3,2,7,8,1,2,3,4,
{8}1h[8:1],4h[8:1],2h[8:1],5h[8:1],3h[8:1],6h[8:1],{4}4h[8:1],
5b/8b,{8}5/7,7/5-1[16:1],,5/4,{4},4b/1b,
{8}4/2,2/4-8[16:1],,4/5,{4},{8}8h[4:1],
2,3,4h[4:1],7,6,{4}5h[1:1],
{1}1h[4:3],
{4}2h[4:1],4h[4:1],3h[4:1],5h[4:1],
1h[4:1],6h[4:1],5h[4:1],7h[4:1],
{8}2,2,{4}2/4h[4:1],{16}3h[16:3],{8},{16}5h[16:3],{4},{8}1,
1,{4}1/6h[4:1],{8}5h[16:3],{4},{8}7,
7/6h[4:1],7,{4}7-1[16:1],{16}7b,{8},{16}6,{8},6,
5h[4:1],7,{4}7-2[16:1],{16}7b,{8},{16}5,{8},5,
4h[4:1],7,{4}7-5[16:1],{16}7b,{8},{16}4,{8},4,
3h[4:1],8,{4}8-5[16:1],{16}8b/3b,{8},{16}3b,{8},3b,
8/1-5[16:1],2,1/7-4[16:1],8,7/2>4[16:1],{16}1,1,{8}2/8-4[16:1],7,
8/1>4[16:1],2,1/8<5[16:1],7,1>4[16:1],{16}2,2,{4}1/8p1[4:1],
1q8[4:1],8s4[8:3],{2}2h[4:1],
{16}1h[8:1],{8},{16}2,1,3,1,4,{32}1-5[16:1],2,3,4,5,6,7,8,{4},{8}1-6[16:1],
3,{4}1,{8}3/1-6[16:1],3h[16:1],1,3,
1-6[16:1],4,{4}1,{8}4/1-6[16:1],4h[16:1],1,4,
1-5[16:1],3,{4}3,{8}3/1-5[16:1],3h[16:1],,3,
1-7[16:1],5,{4}5,{8}5/1-7[16:1],5h[16:1],{4},{8}4/5-1[16:1],
6,5/3-8[16:1],4,3/6<8[16:1],{16}5,5,{8}6/4-8[16:1],3,
4/5<8[16:1],6,5/4>1[16:1],3,5<8[16:1],{16}6,6,{4}5/4p5[4:1],
5q4[4:1],4s8[8:3],{2}6h[4:1],
{16}5h[8:1],{8},{16}6,5,7,5,8,{32}5-1[16:1],6,7,8,1,2,3,4,{4},{8}5-2[16:1],
7,5,7,7/5-2[16:1],7h[16:1],5,7,
5-2[16:1],8,5,8,8/5-2[16:1],8h[16:1],5,8,
5-1[16:1],7,,7,7/5-1[16:1],7h[16:1],,7,
5-3[16:1],1,,1,1/5h[16:3],1h[16:1],{4},8h[8:1]/1-5[16:1],
8b/1-3[16:1],8h[16:3]/1-5[16:1],{8}1-3[16:1],8,
{4}6h[8:1]/1-7[16:1],6b/1-5[16:1],6h[16:3]/1-7[16:1],{8}1-3[16:1],6,
{4}5h[8:1]/1-7[16:1],5b/1-3[16:1],5h[16:3]/1-7[16:1],{8}1-3[16:1],5,
{4}7h[8:1]/1-5[16:1],7b/1-3[16:1],7h[16:3]/1-5[16:1],{8}1-3[16:1],7,
{4}8h[8:1]/1-5[16:1],8b/1-3[16:1],{16}8h[16:1]/1-5[16:1],{8},{16}8h[16:1],{8}1-3[16:1],8b,
{4}6h[8:1]/1-7[16:1],6b/1-5[16:1],{16}6h[16:1]/1-7[16:1],{8},{16}6h[16:1],{8}1-3[16:1],6b,
{4}5h[8:1]/1-7[16:1],5b/1-3[16:1],{16}5h[16:1]/1-7[16:1],{8},{16}5h[16:1],{8}1-3[16:1],5b,
{4}7h[8:1]/1-5[16:1],7b/1-3[16:1],{16}7h[16:1]/1-5[16:1],{8},{16}7h[16:1],{8}1b,7b,
{4},4h[4:15]/5h[4:15],
