&title=SuperNova
&artist=Cranky
&first=0.24
&lv_5=13+
&des=WYBXXJ
&inote_5=
(165){4}Cf/B7/B6/B2/B3/E5/E1,,,,,,,,{2}2h[1:1],
6h[2:1],
{1}Cf/B2/B6,
{4}1,{8}1h[16:1],1h[16:1],{4}1,{8}1h[16:1],1h[16:1],
{4}1/5,{8}5/1h[16:1],1h[16:1],{4}1/5,{8}6/1h[16:1],1h[16:1],
{4}6b-3[8:1]/1b-4[8:1],6/1,{16}1/8,,,6,{8}5,4/7,
{4}3-6[8:1]/8-5[8:1],8/3,{16}8/1,,,3,{8}4,5/2,
{16}6/1>4[8:1],,,7,{8}1,5,{16}3/8<5[8:1],,,2,{8}8,4,
2,{16}1,8,{8}7,{16}1,2,{8}3,{16}7,6,{8}5,{16}2,1,
{4}8-5[8:1]/7-2[8:1],8/7,{16}3,,,7,{8}8,6/1,
{4}2>5[8:1]/5<8[8:1],5/2,{16}7,,,3,{8}4,2/5,
1/6,{16}8,7,{8}6,1,7,{16}5,4,{8}3,{16}4,5,
{4}6>3[8:1],1<6[8:1],4>1[8:1],7-3[8:1],
7b,8/2,{8}4/3,{16}8,7,{8}6/4,{16}1,2,
{4}3/5,7/8,{16}2,,,5,{8}4/6,7/3,
{4}8/2,3/5,{8}1/7,{16}2,3,{8}4/6,7,
{4}8/1-5[8:1],1/7-4[8:1],7/2-5[8:1],2/8-4[8:1],
8/1b<6[8:1],1/2,{8}5/3,{16}7,6,{8}4/5,3/6,
{4}2<7[8:1]/7<4[8:1],7/2-6[8:1],{16}2/8,,,7,{8}5,4/6,
{4}7b-4[8:1]/3b-8[8:1],7/3,2b-5[8:1]/6b-1[8:1],2/6,
{16}8/2,,,3,{8}4,2/5,{4}1>4[8:1]/6<1[8:1],6/1,
7b-3[8:1]/5b-1[8:1],5/7,{8}2/8,{16}7,6,{8}5/3,2,
{4}1-5[8:1]/8-4[8:1],8/1,{16}7,,,3,{8}4,2/5,
{4}1-4[8:1]/6-1[8:1],6/1,{8}8/3,{16}6,5,{8}4,{16}5,6,
{4}7-4[8:1]/1-5[8:1],1/7,{8}2h[16:1]/7h[16:1],2h[16:1]/7h[16:1],2-5[8:1]/7-4[8:1],1/8,
{4}7b/2b,1/8,{8}3/7,{16}4,5,{8}6,{16}5,4,
{4}3/8-4[8:1],8/2,{16}3>8[8:1],,,5,{8}3,6,
{4}1>4[8:1]/7v4[8:1],7/1,8<5[8:1]/2v5[8:1],2/8,
1>4[8:1],1/6<1[8:1],6/3<6[8:1],3/8w4[8:1],
{2}8b,{4}8,8,
8<5[4:1],5>2[4:1],2-6[8:1],1,
1,1,1,1,
1>4[4:1],4<7[4:1],7-3[8:1],8,
8,7,6,5<8[4:1],
8>3[4:1],3<6[4:1],6-2[8:1],8,
1,2,3,4>1[4:1],
1<6[4:1],6>3[4:1],{16}3-7[8:1],,,6,{8}6,5,
{4}6bp1[8:1]/4bq1[8:1],6/4,3q8[8:1]/5p8[8:1],3/5,
2,{8}2<7[8:1],7V14[4:1],2,6h[4:1],,,{4}3q8[8:1]/5p8[8:1],
3/5,6p1[8:1]/4q1[8:1],6/4,
7,{8}7>2[8:1],2qq5[4:1],7,3h[4:1],,,{4}8<5[8:1]/2p5[8:1],
8/2,2<7[8:1]/4p7[8:1],2/4,
5/6-1[8:1],{8}6,5,{4}4/3-8[8:1],{8}3,5,
{16}1,8,1,8,2,7,2,7,3,6,3,6,4,5,4,5,
{1}3b>3[2:1]*v1[8:1],
8b/2bq5[16:9],
8b/1bpp5[2:1],
4/8bz4[2:1],
3/7bpp3[2:1],
{2}1/6b-2[8:1],3/5b-1[8:1],
6/4bp8[8:1],6/3b>7[8:1],
8/2bv5[8:1],7/1b-5[8:1],
2h[1:1],6h[2:1],
{1}Cf/B2/B6,
{4}1,{16}1,1,1,1,{4}1,{16}1,1,1,1,
{4}1b>4[8:1]*<6[8:1],1-5[8:1],{16}7/1>3[8:1],,,8,{8}1-5[8:1],7,
{4}1/8<5[8:1]*>3[8:1],8-4[8:1],{16}2/8<6[8:1],,,1,{8}8-4[8:1],2,
{16}8/3-8[8:1],,,6,{8}3,5,{16}6-1[8:1],,,3,{8}6,4,
4/8,{16}3/7,2/6,{8}1/5,{16}2/6,3/7,{8}4/8,{16}3/7,2/6,{8}1/5,2,
{4}4b>1[8:1]/1b<6[8:1],4/1-5[8:1],{16}8/1x>4[8:1],,,7,{8}1,6,
{4}5<8[8:1]/8>3[8:1],5/8-4[8:1],{16}1/8x<5[8:1],,,2,{8}8,3,
4-8[8:1],{16}5,5,{8}4,6,1-4[8:1],{16}7,7,{8}1,8,
{2}7h[1:1],3h[2:1],
{48},2bx-5[48:5]/6bx-1[48:5],5x/1x,4x/8x,,,,,,,,,{4}6/2<7[8:1],{16}7/2-6[8:1],,,6,{8}2,5,
{4}3-8[8:1]/7-4[8:1],3/7>2[8:1],{16}2/7-3[8:1],,,3,{8}7,4,
5>2[8:1],{16}6,6,{8}5,7,1>4[8:1],{16}8,8,{8}1,7,
6h[4:1],{16}4,3,{8}2h[4:1],{16}8,7,{8}6h[4:1],{16}1,2,{8}3,4/8,
{4}1-6[8:1]/5-2[8:1],5/1>4[8:1],{16}7/1-5[8:1],,,6,{8}1,4,
{4}8-3[8:1]/4-7[8:1],4/8<5[8:1],{16}2/8-4[8:1],,,3,{8}8,2,
3/5,{16}8x/7x,6/1,{8}5bx/2bx,{16}1x/8x,2/7,{8}3bx/6bx,{16}2x/1x,3/8,{8}4bx/7bx,{16}8x/3x,7/2,
{8}6bx/1bx,{16}1x/6x,2/7,{8}3bx/8bx,{16}8x/3x,4/7,{8}5bx/6bx,{16}1x/6x,5/2,{4}3bx/4bx-8b[16:1],
{8}4/5,{24}7,6,5,4,3,,,{12}1/6,{24},3/5,,,{12}8/1,8/1,7/2,2/7,
{1}8b/1b,
E
