&title=祝福
&artist=YOASOBI
&first=0
&des=reflectW
&lv_5=12
&inote_5=(170)
{1},
{8},,,,,,,,
{8}7h[4:1]/5,,5,,46,,,,
{8},,3h[4:1],,8,,,,
{8}2h[4:1]/4,,4,,53,,,,
{8},,6h[4:1],,1,,,,
{4}1-4[8:1],1,5-8[8:1],5,
{4}2-5[8:1],2,6-1[8:1],6,
{8}3-6[8:1],,5-8[8:1],,4-1[8:1],,7w3[4:2],7b,
{4},,,1h[64:1],
{8}3h[4:1]/5,6,7,{16}2,1,2,,{8}8,7,6^1[8:1],
{8},3,4,5^2[8:1],,8,7,6,
{8}5h[4:1]/4,3,2,{16}7,8,7,,{8}1,2,3h[16:6],
{8},,8-4[8:1],,8,,{16}1,2,3,4,
{4}5>8[2:1],7,7,7,
{4}7/8pp4[2:1],7,7,7,
{4}7/5>8[2:1],7,7,7,
{16}7/8h[2:1],,,,6,,,,5,,,,43,,5,6,
{4}7V51[2:1],2,2,2,
{4}2/8p6[2:1],2,2,2,
{4}2/7V51[2:1],2,2,2,
{16}28,,28,,46,,46,,3-8[8:1],5,3,5,3,,,,
{4}7-4[8:1],2,3-8[8:1],6,
{4}5-8[8:1],3,4-1[8:1],6,
{8}7<8[4:4],,,3,3h[4:3],,,,
{8},,,,4>8[4:1],,8<4[4:1],,
{8}4V28[4:1],,8V64[4:1],,4p8[4:1],,8p4[4:1],,
{4}4>8[4:1],8<4[4:1],4,,
{16}34,,34,,2,,8,1,8,,56,,56,,7,,
{8},2h[8:1],4,3h[8:1],5,4h[8:1],6,53,
{8}2,8-4[8:1],4,8,,1-5[8:1],5,1,
{8},7^4[8:1],4,7,,2q6[8:1],6,2,
{8},7-5[8:1],5,7,,2-4[8:1],4,2,
{8},5-1[8:1],4,5,,2h[8:1],4,3h[8:1],
{8}5,4-7[8:1],7,4,,8p4[8:1],4,8,
{8},2^7[8:1],7,2,,6,5,7h[4:1],
{8},1,1h[4:1],,5,26,37,4b/8b,
{8},1b/5b,3bV15[4:1]/7bV15[4:1],,,,,,
{8}3-8[8:1]/4,,6,5V71[4:1],,2,3,4-8[8:1]*-7[8:1],
{8},4,,1,6,2,7-3[8:1],3,
{8}7,,4,4>7[4:1],,7,6,5-1[8:1],
{8},45,3,,7,5,6,4,
{8}5q1[8:1],,2,2q3[4:1],,7,6,5w1[8:1],
{8},5,,2,3,4,5,6,
{8}7h[4:1],,3,3h[4:1],,1,8,7v1[8:1]/3-5[8:1],
{8},,,8,3,7,2-6[8:1],6,
{8}2,,5,5<2[4:1],,2,3,4>7[4:1],
{8},47,6,5,5-1[8:1],,1,2,
{4}3-8[8:1],8-3[8:1]/3,8/4-8[8:1],4/8-4[8:1],
{4}8/4-7[8:1],7-4[8:1]/4,73,1-4[8:1]*-6[8:1],
{4}1,5-8[8:1]*-2[8:1],5,3^8[8:1]/7^4[8:1],
{4}37,2-5[8:1]/7,6-1[8:1]/2,4qq4[16:5]*pp4[16:5]/6,
{4}4,,2h[4:1]/6h[4:1],,
{16}48,,6,5,6,,37,,1,2,3,4,5,6,7,8,
{4}1pp4[4:2]/5<4[4:2],,,,
{4}15,,37,,
{8}35,46,57,{16}8,1,8,,2,4,3,5,4^1[8:1],,
{8},45,6,7^4[8:1],,8,1,2,
{8}64,53,42,{16}1,8,1,,7,5,6,4,5^8[8:1],,
{8},54,3,2^5[8:1],,1,8,7,
{8}65,45,34,{16}2,1,2,,3,5,4,6,5>2[8:1],,
{8},51,8,7^4[8:1],,8,1,2,
{8}34,54,65,{16}7,8,7,,6,4,5,3,4h[4:1],,
{8},1-5[8:1],5,1,,4^1[8:1]/8^5[8:1],5p5[4:4]/1p1[4:4],4b/8b,
