&title=G4L
&artist=Giga
&first=0
&des=YY1Y
&clock_count=4
&lv_5=13
&inote_5=(140)
{1},
{4},,,
{32}E3,E4,E5,E6,D7,D8,D1,D2,
{8}3bxh[4:2]/D3/5b,,,4,4h[4:1],,5h[4:1],,6p4[8:3],,,,
{16}2x,,,3x,,,4x,,
{8}6bxh[4:2],,,5,5h[4:1],,4h[4:1],,3,2xz6[8:4],2x,,,,,,
{8}3bh[4:2]/5,,4,,E3`B3,,5,,
{8}4,,6bh[4:2]/5,,E7`B6,,4,,
{8}2bh[4:2]/5,,4,,E3`B2,,5,,
{8}3,4x,5b,6bxh[8:4]/4,{16}A7/A8/D8/E8/B7/B8,,,A2/A1/D2/E2/B2/B1,,,A4/A5/D5/E5/B4/B5,,
{8}7bh[4:2]/3,,5,,E7`B7,,8,,
{16}1<6[8:1]/8,1,,,2h[4:1],,,,4>1[8:1],4,,,5qq5[4:1],,,,7xb,,,,
{8}8-5[8:1],8,4<7[8:1],,3/4,,
{16}1>4[8:1]/2,,,8,1,,7,,5<8[8:1]/6,,,4,5,,3,,
{16}2b>5[8:1],,8,8,2,,7,,6h[4:1],,8,,5h[4:1],,8,,
7V58[16:3],5,,5,7,,4,,2pp2[16:3]b,,2,,,,,,
{16}7b-4[8:1],,1,1,7,,2,,3h[4:1],,1,,4h[4:1],,1,,
{16}2b-6-2[4:1],,6,6,2,,7,,8-4[8:1]b,,1,,8,,,,
{8}2b-4-1-5[8:3],2,5,6,7<4[8:1],7,,,
{8}2-4-1-5[8:3],2,6,7,8qq8[16:3]b,8,,,
2b-5-2[4:1],1,8h[8:1],,7-4-7[4:1],8,1h[8:1],,
{8}2-5-2[4:1]b,5,2-6-2[4:1]b,6,,,E1f/A8/A1/D1,,
{8}7h[4:2],,,,E4,E3,E7,E6,2h[4:2],,,,E5,E6,E4,E5,
{8}6h[4:2],,,,D5,D4,D6,D5,3h[4:2],,E5,,A4,,A5,,
{16}6h[4:1],,,,5,,,,4,,3,,6,,5,,3h[4:1],,,,4,,,,5h[4:1],,,,4,,,,
{8}7xh[8:1],,5xh[8:1],,3xh[8:1],,1xh[8:1],,
{8}C,,3/5,3/5,2/6,2/6,1/7,1/7,
{64}A8,E1,B1,B2,C,B6,B5,E5,4bxh[64:40],,,,,,,,
{8}7xh[128:1],1xh[128:1],6xh[128:1],2xh[128:1],5bh[128:1],4,7b-4[8:1],
{16}5,5,7,,{8}2q6[8:1],1,8<5[8:1],7,3,2-5[8:1],
{16}4,4,2,,
{8}6h[4:1],7,1,2>5[8:1]/4-8[8:1],6,2b<7[8:1]/4b,,2v7[8:1]/6>3[8:1],,6<1[8:1]/2,,6v1-7-5[4:1]/2>5[8:1],,2/6,,,
{8}2v5[8:1],1,8p4[8:1],7,3,2b-5[8:1],
{16}4,4,2,,{8}7p3[8:1],8,1>4[8:1],2,6,7-4[8:1],
{16}5,5,7,,
{8}3h[4:1],2,8,7<4[8:1]/5-1[8:1],3,7b>2[8:1]/5b,,7v2[8:1]/3<6[8:1],,3>8[8:1]/7,,3v8>2-4[4:1]/7<4[8:1],,7/3,,
{8}7xh[16:1],6xh[16:1],3/5,2,4v1[8:1]/3,7,6b/4b<8[16:2],,2/4,,3,
{16}4,,6-3[8:1],5,7,,3q5[4:1]/6,,,,2xh[8:1],,,,2x,,
{8}3<6[8:1],6,3,7b-4[8:1],8,1-6[8:1],2,3-8[8:1],4,5p4[4:1],6,1p8[4:1]b,
,,,6,7,5p8[8:1]/6,2,3b/5b>1[16:2],,7/5,,6,
{16}5,,3v6[8:1],4,2,,6pp4[4:1]/3,,,,7h[4:1],,,,,,
{8}6,3,2-5[8:1]/5-1[8:1],,5/2,,8,7b-4[8:1]/4b-8[8:1],,4/7,,
{8}2h[8:1],3,6h[8:1],7,5x-1[8:1]/4x-8[8:1],,5pp4[8:4]b/4qq5[8:4]b,,5b/4b,,,,
{16},,,,3/6,,,,
{16}2>5[8:1],,5,5,2v7[8:1],,7V15[16:3],,2,,6h[128:1],,6h[128:1],,,,
{16}7b<4[8:1],,4,4,7v2[8:1],,2V84[16:3],,7,,3h[128:1],,3h[128:1],,,,
2/6h[4:1],,
{24}2,3x,4x,5x,,,
{24}7/8,,,
{16}1-5[8:1]*<6[8:1]/6,,5V31[8:1]/3,,1,,,,
{16}8b<5[8:1],,4,4,8v2[8:1],,2-8-6-4[16:3],,8,,3h[128:1],,3h[128:1],,,,{16}1>4[8:1],,5,5,1v7[8:1],,7-1-3-5[16:3],,1,,6h[128:1],,6h[128:1],,,,
{8}8b-4[8:1]b,4-8[8:1]/7,3bxh[8:1],,1b-5[8:1]b,5-1[8:1]/2,6bxh[8:1],,
{4}8h[4:2],,,5bpp5[8:2]b*qq5[8:2]b/4b,5b/Cf,,,
E
