&title=Qliphothgear
&artist=Juggernaut.
&first=0.09
&des=JDJDH
&lv_5=14+
&inote_5=(212)
{4}
,,,,
5bh[4:4]/4-2-8-6[4:7],,,,,,,,
4-6-8-2[4:7],,,,E4,,,,
5-3-1-7[4:7],,E7,,E6,,E5,,
4V68[4:5],,1,,2,,3,,
4>7[4:7],,,,5,,,6,
6V42[4:7],,,3,3,,1,,
8>6[4:7],,,5,,,7,,
8,8V64[4:3],,,3-7b[16:7],,,,
{16}
5h[8:2],,,,1,2,3,4,5-2[8:1]/7,,,,,,,,
8h[8:2],,,,4,5,6,7,8-4[8:1],1,2,3,4/8b,,,,
{8}
2/5h[8:1],,6/3h[8:1],,4/7h[8:1],,5,6,
4,35,4,3,5,2,1,8,
7/4h[8:1],,3/6h[8:1],,5/2h[8:1],,
4,1,5,2,4,3,5,4,6,7,
8/5h[8:1],,4/7h[8:1],,6/3h[8:1],,
5,4,6,57,6,4,5,3,7,5,
{16}
4,5,4,5,3,6,3,6,
2,7,2,7,1,8,1,8,
1,8,2,7,3,6,4,5,
4,3,2,1,8,7,6,5,
{8}
4bw8[8:1],,,,
6/2h[8:2],,E4/B3,B1/E2,B6/E6,B4/B5,B8/E8,E2/B2,B5/E6,B3/E4,8b-4-6-8[8:3],,
3bh[8:4],,,,B8/E1,E5/B4,B6/E7,2bz6[8:2],,,8-4b[8:1],,4bw8[8:1],,,,
2-5[8:1]/6bv1[8:1],,C,,
3/7h[8:2],,E6/B6,B8/E8,B3/E4,B5/B4,B1/E2,E8/B7,B4/E4,B6/E6,1b-5[8:1],,
1/6bh[8:2],,4>1[8:1],,8b-4[8:1],,8,2b-7[8:1],,2b,5-1[8:1],,5b,,
{24}
D3/A2,D2,A1,D1,A8,D8,A7,D7,A6,D6,A5,D5,A4,D4,A3,,,,
{12}
8,2,2,7,3,6,4,5,5,3,4,2,5,1,1,6,2,5,
{6}
3h[6:1],4h[6:1],5,
4/6h[6:1],5,3/6h[6:1],5,2/6h[6:1],5,1/6h[6:1],
{12}
5,5,7,7,
{8}
5bw1[8:1],,,,
7/3h[8:2],,E2/B2,B4/E4,B7/E8,B1/B8,B5/E6,E4/B3,B6/B7,B2/E2,8b-4[8:1],,
8/3bh[8:2],,5<8[8:1],,1b-5b[8:1],,1,7b-2[8:1],,7b,4,,
{16}
5b,4,3,2,1-5b[8:1],8,7,6,
{8}
1b>7[8:2]/5,,,,8b-4[8:1],,18,1bpp8<3b[8:5],,,,,B5/B6/E6,,,,
{16}
1/5h[16:3],,,2h[16:3],,,3h[16:3],,,4h[16:3],,,5,,4,,
{8}
36,5,4,6,57,4,8-4b[8:1],3,
8b<2[8:2]/4,,,,1b-5[8:1],,81,8bqq1>6b[8:5],,,,,B4/B3/E4,,,,
8>3[8:1],7,8,7,1-5[8:1],7,1,7,4<7[8:1],3,2/4x,1,8-5[8:1],1,2-6b[8:1]/8x,,
2b<4[8:2]/4,,,,1b-5[8:1],,18,8b>5qq6b[8:5],,,,,A1/D2/E2,,,,
{16}
8/7h[16:3],,,1h[16:3],,,3h[16:3],,,4h[16:3],,,5,,3,,
{8}
26,4,3,5,46,3,7-3b[8:1],4,
7b>5[8:2]/5,,,,8b-4[8:1],,81,1b<4pp3b[8:5],,,,,A8/D8/E8,,,,
1,1,2,2,3,3,4,4,
{16}
4x,5,4,5,3x,4,3,4,
{8}
1x,3x,5xs1[16:3]*-1b[16:3],7x,,,,,
2,B6/B7,B3/E4,8,B3/B2,B6/E6,1,B7/E8,2x,2x,4,3,
6h[8:2],8,8,5h[8:2],2,2,7h[8:1],5,
6h[8:1],4h[8:1],5h[8:1],3h[8:1],4x,4x,3,2,
{16}
1/A5,D6,A6,D7,3x/A7,D8,A8,D1,5x/A1,D2,A2,D3,7x/A3,D4,A4,D5,
1x/A5,D6,A6,D7,3x/A7,D8,A8,D1,5x/A1,D2,A2,D3,7x/A3,D4,A4,D5,
1xh[8:4]/E6,E7,E8,E1,E2,E3,E4,E5,
5x,6x,7x,8x,1x,2x,3x,4x,
2,5,2,5,3,6,3,6,
{8}
E4,E6,B2,B7,
{1}
1b>8-2-4-6q7b[8:27],,,,
{4}
8V64[4:3],,6,,3V57[4:3],,5,,
8-2-4-6-8[4:7],,6,,4,,2,,
{8}
1h[8:2],,2h[8:2],,3h[8:2],,7,7h[8:2],,5h[8:2],,
{16}
6,5,
{8}
6,6,5,4,6h[8:2],,4,4h[8:2],,5h[8:2],,3h[8:2],,4h[8:2],,5h[8:2],,6h[8:3],,5,
4V28[8:5],,,7,,,6,,5V71[8:5],,,2,,,3,,
{16}
4h[16:3],,,5h[16:3],,,6,,
{8}
6-2[8:1],,8,,
{4}
1>8b[8:4],,,,
{16}
4h[8:2],,,,8,7,6,5,4-7[8:1]/2,,,,,,,,
1h[8:2],,,,5,4,3,2,1-5b[8:1],8,7,6,5/1b,,,,
4/7-4[8:1],,8,,7/3-8[8:1],,2,,35,,6,,7,1,8-4b[8:1],,
7,,18,,3,,2,4,3-7[8:1],,4,,36,,5,,
8V64b[8:1],,3,,28,,1-5[8:1],,,,1>4[8:1]/5,,,,1<6[8:1]/6,,
,,1-5[8:1]/4,,,,1w5b[8:1],,,,1,,,,37,,
37,,6,5,6,,47,,3,4,3,,25,,6,,
37,,2,1,2,,38,,7,8,7,,16,,2,,
3h[8:1]/4h[8:1],,,4h[8:1]/5h[8:1],,,56,,7x-4[8:1]/8x-4[8:1],,,,78,,,,
25,,3,4,2-6b[8:1],,1,,26,,,,57,,,,
5/2-5[8:1],,1,,2/6-1[8:1],,7,,64,,3,,2,8,1-5b[8:1],,
2,,81,,6,,7,5,6-2[8:1],,5,,63,,4,,
1bV35b[8:1],,,,7b/1,,8b-4[8:1],,,,8bx-6[8:1]*-5[8:1],,,,8bx-2[8:1]*-3[8:1],,
,,8bx-4[8:1],,,,8bxw4b[8:1],,,,8b,,,,62,,
2b/6b,,,,3,5,4,5,3x,2,1,8,4x,,,,
6b/2b,,,,7,1,8,1,7x,6,5,4,8x,1,2,3,
4x/5,,6,,35,,2,,47,,8,,37,,37,,6,2,6,2,5,1,5,1,
4h[16:3],,,7,,,8,,
{4}
Ch[4:6]/1>8[4:5],,,,,,,1-5[8:1]/8-4[8:1],
{8}
1b/8b,,36,2-5[8:1]/7-4[8:1],,27,,1/8>3[8:1],,7/8<5[8:1],,8/4w8[8:1],,4x,,26,
{16}
15,,2,4,3,,48,,7,5,6,,47,,3,,
26,,3,5,1,,37,,6,4,8,,17,,2,,
4h[16:3],,,5h[16:3],,,7,,7-3[8:1],,,,17,,,,
24,,5,,46,,3,4,3-7[8:1],,,,5,,,,
2v5[8:1]/6v1[8:1],,,,2-7[8:1]/6-3[8:1],,,,26,,,,48,,1>4[8:1]/5<8[8:1],,,,15,,,,
5,7,4,,6,,35,,2,,1bV35b[8:1]/4,,,,1/7bx,,8b-4[8:1],,,,
8bx-5[8:1]*-6>5[8:1],,,,8bx-3[8:1]*-2>3[8:1],,,,
8bx-4b[8:1],,,,8bw4[8:1],,,,8b,,,,26,,
15,,2,8,3,7,4,6,5,4,3,2,8,,,,
84,,7,1,6,2,5,3,4,5,6,7,1,2,3,4,
56,,7,,35,,2,,47,,8,,36,,27,,1,8,2,7,3,6,4,5,
4h[16:3],,,1,,,8,,7-3[8:1]/C,,,,,,,,
{8}
5,1-6b[8:1],5,1-4[8:1],5,1<6[8:1],5,1>4b[8:1],5,1,7h[8:2],,
8,6V84b[8:2],4,2,,1,3,5,6h[8:2],5,4h[8:2],5,7<4[8:1],8,1w5b[8:1]/7,,
C,,3x/7x,,
{12}
2,8,8,3,7,4,6,5,5,7,3,3,8,2,2,1h[8:3],,,
{8}
5,5,48,48,37,37,26,26,
{16}
1,7,2,6,3,5,4,8,
17,,,25,,,48,,
37,26,15,48,
{4}
3bh[4:8]/7b>7[4:7],,,,,,,,,,,E
