&title=ShadyShady
&artist=Sakuzyo
&first=0
&des=KuSA
&lv_5=12+
&inote_5=(100)
{1},
{1},,,
{8}3/4>7[2:1],,,,5h[8:3],,,,4<3[2:1]/6,,,,4h[8:3],,,,2>5[4:1]/5,,,,7>2[4:1],,,,
4h[8:7],,1,,3h[8:3],,,,3/4pp2[2:1],2,,1,,8,,{16}7,6,5qq8[2:1],,7,,,,8,,,,1,,
2,,2,,3>6[4:1],,,,6>1[4:1],,,,1<4[4:1],,,,4>7[4:1],,,,
7pp5[8:3]*V14[8:3],,,,,,,,,,,,
3h[12:1]/6h[12:1],,,,
{24}5-8[12:1]/2,,,6,,,51,,,3,,3,1<6[12:1],,,42,,,1,,5,5,,,
4-1[12:1]/7,,,3,,,48,,,6,,6,8>3[12:1],,,57,,,8,,4,4,,,
5-8[12:1]/2,,,7,,,15,,,3,,3,1<6[12:1],,,42,,,1,,5,5,,,
7/1h[8:1],,,8h[8:1],,,7h[8:1],,,6h[8:1],,,5h[8:1],,,4,,,7<4[8:1]/3>8[8:1],,2,6,,,
3bV57[8:1]/7bV13[8:1],,,,,,,,,,,,4/6h[8:1],,,8,,,3h[8:1]/4,,1,1,,,
7/8-4[12:1],,,5,,1,8,,,3,,3,4>1[12:1],,,5,,,4<7[12:1],,6,6,,,1-5[12:1],,,
3,,8,1,,,6,,6,5<8[12:1],,,4,,,5,,3,3,,,
2/1h[8:1],,,5,,,7<4[8:1]/8h[8:1],,,4V61[24:5],,,
2q6[12:1],,,,,,,,,,,,7b/3b,,,,,,
4pp6[8:1],,,6-1[12:1],,,,,,,,,5qq3[8:1],,,3-8[12:1],,,,,,,,,
5,,,6/7h[4:1],,,,,,5h[8:1],,,4h[8:1],,,2,,,
1p4[8:1]/5,,,8q5[8:1]/4>1[8:1],,,,,,,,,,,,7/8,,,
5/6,,,34,,,2/1q6[6:1],,,8,,,
7<4[12:1],,,7-3[12:1],,,7V15[6:1],,,7,,,7,,,,,,18,,,,,,
4qq2[8:1]*pp6[8:1],,,2<7[8:1],,,,,,,,,5pp7[8:1]*qq3[8:1],,,7>2[8:1],,,,,,,,,
3,,,2h[4:1]/4,,,,,,4h[8:1],,,5h[8:1],,,7,,,
8q5[8:1]/4>1[8:1],,,1p4[8:1]/5<8[8:1],,,,,,,,,,,,
2/3,,,18,,,7/6,,,5q3[8:1]/4,,,3,,,4>1[12:1],,,4<7[12:1],,,
4q4[16:3],,,4,,,,,,,,,8b<1[8:5],,,,,,,,,,,,,,,,,,,,,
5h[8:5],,,,,,8,,,2,,,7,,,3<6[8:1],,,,,,,,,,,,
8p2[8:2],,,,,,2,,,,,,1q6[8:2],,,1,,,6,,,8h[8:3],,,,,,
6-1[8:1],,,1-3[32:3],,,3V58[115#32:9],,,5h[2:1],,,,,,
,,,,,,8-3[8:1],,,3p2[16:5]/6h[4:3],,,,,,,,,,,,,,,,,,4,,,
1-6[8:1]/7,,,6qq3[16:5]/2h[4:3],,,,,,,,,,,,,,,,,,1,,,3/8-5[8:1],,,
5p2[16:5]/6h[4:3],,,,,,,,,,,
,,,,,,,8-3[12:1],,,4-7[12:1],,,8,,,4,,,{16}2,8,47,,26,,
1qq2[6:1]/5<5[4:1],,,,1b/5qq6[6:1],,,,{24},,,,,,7/8-4[12:1],,,2/1>7[16:3],,,
87,,,1,,,,,,8,,,{16}1/5,3/7h[48:7],{24},,5,7,,3,5,,,1-5[12:1]/7,,,,,,
1-6[12:1]/5-2[12:1],,,7,,,5-1[12:1]/1,,,,,,5/1<5[8:1],,,3qq8[4:1],,,1,,,3b,,,,,,5,,,
1/6,,,{24}2,,2,38,,,4/5,,,
{16}8pp7[6:1]/4>4[4:1],,,,8b/4pp3[6:1],,,,{24},,,,,,
2/1-5[12:1],,,7/8<2[16:3],,,
12,,,8,,,,,,1,,,{16}8/4,6/2h[48:7],{24},,4,2,,6,4,,,2/8<5[12:1],,,,,,
8-4[12:1]/3-1[12:1],,,2,,,8<5[12:1]/3,,,,,,8/3,,,1,,,
8-4[12:1]/5,,,2/6h[8:1],,,8,,,7-3[12:1],,,5/1h[8:1],,,7,,2,2,,,1/7,,,
2V46[8:1]/5<5[32:8],,,,,,5q3[32:4]/2b,,,,,,,,,,,,
7-4[12:1]/1,,,3qq1[32:3]/5,,,1>6[6:1]/7,,,3,,,,,,8,,,{16}8/4,1h[48:7]/5,
{24},,3,1,,6,8,,,1>4[12:1]/7,,,6<1[12:1],,,1v6[12:1],,,6,,,5<8[12:1],,,2>5[12:1],,,
5v2[12:1],,,2V48[6:1],,,1,,,7bV51[6:1],,,,,,1,,,3,,,
4,,4,3/8,,,15,,,7V53[8:1]/4>4[32:8],,,,,,4p6[32:4]/7b,,,,,,,,,,,,
2-5[12:1]/8,,,6pp8[32:3]/4,,,8<3[6:1]/2,,,6,,,,,,1,,,{16}1/5,8h[48:7]/4,
{24},,6,8,,3,1,,,8/2>5[12:1],,,,,,7-3[12:1]/2-8[12:1],,,6,,,2/7<4[12:1],,,
,,,7/3-6[12:1],,,1q4[4:1],,,3,,,1b,,,,,,1h[8:1],,,3h[8:1],,,5h[8:1],,,7h[8:1],,,1,,,
3/8,,2,1,,4,5>3[12:1],,,6,,,7/5,,,{24}8,,8,2<7[16:1],,6<1[12:1],4h[8:1],,
,2V46[8:1],,,,,,{24}2bV85[8:1],,,8,,,2V48[8:1],,,4,,,2V86[8:1],,,6q3[12:1],,,
,,,,,,5<8[12:1],,,2,,,4-7[12:1],,,7V52[8:1],,,2V48[6:1],,,1,,,
7-5[16:1]*>2[12:1],,,,,,7bV14[8:1],,,,,,7V51[8:1],,,5,,,7V13[8:1],,,3p6[12:1],,,
,,,,,,4>1[12:1],,,7,,,8<5[12:1],,,3,,,2,,2,4,,7,5pp5[8:5],,,46,,,
1bs5[8:3],,,,,,,,,,,,,,,,,4,5<8[12:1],,,4/6,,,1>4[12:1],,,3,,,8<5[12:1],,,6,,,
2,,2,4,,7,5<3[8:5],,,4/6,,,1bs5[8:3],,,,,,,,,,,,,,,,,4,5,,5,3h[8:1],,,
4,,4,2h[8:1],,,3,2,3,2,1,2,4,3,1,2,4,3,52,,6,4,,3,7,,8,7h[8:1]/1,,,
6,7,6,7,8,7,5,6,8,7,5,6,47,,3,5,,6,2,,1,2h[8:1]/8,,,
3,1,5,3,7,5,1,3,5,1s5[12:1],7,3,5b,
