&title=RE:World's end loneliness
&artist=打打だいず
&first=-0.074
&des=Asakura
&des_6=Asakura
&lv_6=14+
&inote_6=(205){4},,,,Ch[2:1],,,{12}3,4,3,6,5,6,2,1,2,7,8,7,
3x,3,4,7x,7,6,4x,4,2,6x,6,8,1bx,4,1,8bx,5,8,3bx,1,3,6bx,8,6,1bx,3,2,8bx,6,7,
1h,2h,3h,8h,7h,6h,{4}5bxqq2[1:4],,,{8}E7,{4}E8,,,{8}E8,B7,B6,{4}E6,,,
{8}B5,{8}Ch[10:11],,,,,,,,,,,,,{2}4,3,2,1h[1:1],,Ch,{16}1,8,1,8,{4}2/7,
3-8[8:1],{8}6,6qq1[4:1],,4,4,3-7-1b[4:1],,5,5-8-3[4:1],,4,4,4hb[4:1],
,6b-1b[8:1],,4,4-1-7b[4:1],,5,5,5h[4:1],,3,3-6[8:1],,1-4-7b[4:1],8,8,,2b,,
{16}7-4[8:1],8,7,8,{8}7b,,{16}2-5[8:1],1,2,1,{8}2b,,,6h[8:1],,,7h[8:1],,8h[8:1],
,1,1,2,2,3,3,4,
4,
{7}5,5,
6,6,
7,7,{56},
{16}8b,1,8,2,8b,2,8,3,8b,3,8,4,
8b,4,8,4,{24}8b,5xb,8bx,5bx,8bx,5bx,8bx,5bx,8bx,5bx,8bx,5bx,8bx,5bx,
8bx,4xb,8bx,4xb,8xb,4bx,8bx,4bx,8bx,4bx-8b[1:1],8bx,4b,8bx,
4bxh[1:1],,,,,,,,,,,,,,,,,,,,,,,,,,,,
(180){2}Ch[2:1],
{24}B2/B6,B3`B7,B4`B8,
{8}E5`E1,,
{4}8<1[4:13],,,E1,E2,E3,E4,E5,C,,,E1,E8,E7,E6
,E5,
{12}6,4,6,4,6,4,5,3,5,3,5,3,5,4,6,4,5,3,6,4,7,
{4}2-8[32:9],
(160)
{2}8bV62[28:15],
(140)
{2}2bV85[24:13],
(120)
{2}5bV31[20:11],
(95)
{4}1b,
(205){16}8,,8,,8,1,8,,
7b/2b-4[8:1],,6,,{8}5-1[8:1],,,3-8[8:1],,3,,7-5[8:1],7,,
{16}2,1,2-5[8:1],1,{8}2b,,7-1[8:1],7,7,,4,3-6[8:1],,5pp8[4:1],,
5,5h[4:1],,C,,1-6[8:1],,1b,2-4[8:1],2,,5,6-8[8:1],,6b,,2-5[8:1],2,,
8-6-4b[6:1],8,8,,{24}3,4,3,4,,,6,5,6,5,,,2,3,2,3,,,7,6,7,6,,,{8}1,1,1,1,{16}1,1,1,1,
{4}8b/2b,
{8}2b-4[8:1]/7b,6,
5-1[8:1],5,
2,2h[8:1],
{16}
8,7,
{8}
6,3-5[8:1],
3,6-2[8:1],
6,3,3h[8:1],
{16}
1,8,
{8}
7,3-7[8:1],
3,5>3[8:1],
5,2,2,
{16}
1,8,1,,2h[8:1]/7,,E7,B6,
{8}
B5,E3/B3,E8/B7,E5/B4,E6/B6,,
8-2[8:1],8,
3-7[8:1],3,
6-4[8:1],6,
{16}
8,1,
{8}
2,6>3[8:1],
6,2-6[8:1],
2,8,8,
{16}
7,5,6,,3,4,2,,
6,5,7,,3,4,1,,
6,5,8h[4:1],,,,1,2,
{8}
3,E7/B7,E3/B3,E5/B5,1qq2[4:3],,
Cf,,,,,5,5pp4[4:3],,Cf,,,,,2,2,,
{16}
1b-4[16:1],,,5b-8[16:1],,,3b-6[16:1],,,7b-2[16:1],,,
{8}
4b,4,8h[4:1],,,1h[4:1]/7h[4:1],,,26,,
{16}
1/5h[8:1],,,,1/5h[8:1],2,3,,
6h[8:1],,,,2/6h[8:1],3,4,,
7h[8:1],,,,3/7h[8:1],4,5,,
8h[8:1],,,,4/8h[8:1],5,6,,
{8}
8,8,8,8,
{16}7,1,7,1,6,2,5,3,
{8}4b/C1f,,,,
1,1,8x/2x>5[8:1],,{8}1,8,7>2[8:1],6,5,4<7[8:1],
3,2,1>4[8:1],8,7,6<1[8:1],5,5/6,4,5/6,4<7[8:1],3,2,1>4[8:1],
8,7,6<1[8:1],5,4,3<6[160#8:1],2,1,2/3b,1,2/3b,1,8>3[8:1],
7,6,5<8[8:1],4,3,2>5[8:1],1,8,7>2[8:1],6,7/6,5,7/6,5,4,
6/4,6/4,{16}5,4,{8}5,5/3,5/3,{16}4,5,4,5,
{32}6x,7,8,1,2,3,4,5,6,
7,8,1,2,3,4,5,6,7,8,1,2,3,4,5,
{8}2x-5[8:1]/6x,,6b,,47,4/7h[4:1],,6-1[8:1],,5,,2,3,4,6<8[8:1],5,4h[4:1],,1-5[8:1],,8,7-3[8:1],,5,,4h[4:1],,6-4[8:1],2-5[8:1],6,2,7,7-1[8:1],,
2,,34,3-7[8:1]/4,,2,,1-5[8:1],,
8,8h[4:1],,5-1[8:1],,7,6,2bV48[4:1]/5,,
8,7,6bV84[4:1],,1,2,3b,,
45,2b-5[8:1]/6b-1[8:1],,
2b/6b,,4b/8b,,,
{16}
6,5,6,7,6,5,6,7,6,5,6,7,
6,3,4,3,2,3,4,3,2,3,4,3,2,3,4,3,
2-5[8:1],,,1,,,8,,7-4[8:1],,,8,,,1,,
{8}
2h[4:1],,4>1[8:1],5,6,6,7x/8x,,
{16}
7h[4:1]/8,1,2,3,4,,56,,5/6h[4:1],4,3,2,1,,87,,
7/8h[4:1],6,5,4,3,,21,,1h[4:1]/2,3,4,5,6,,
{8}
18,,5,46,37,
{16}
2h[8:1]/8h[8:1],,,2h[8:1]/8h[8:1],,,37,,,,1,5,1,5,1,5,
{8}
3h[4:1],,8b,,
4-8[8:1]/7,7,47,7,1-6[8:1]/7,7,17,
7,5/7-3[8:1],5,57,5,2-6[8:1]/5,5,25,
5,47,3,25,6,17,2,38,7,46,
{16}
3,4,
{8}
2-5[8:1],8-6[8:1],2-6[8:1],8,2,8,
{16}
8,4,8,4,8,
7,6,5,3,2,1,8,
6,5,6,,47,,38,,
{24}
2,1,2,1,2,1,
{8}
2,38,4h[4:1]/7h[8:1],,
{16}
6b,5,,6b,5,,37,,
3b,4,,3b,4,,25,,
{4}
2h[3:1]/5h[6:1],,34,1-4[8:1],
{1}
1bq4[2:5]*p5[4:5],,5h[4:3],
{16}
E6,B5,B4,E4,
{4}
,,36,
{8}
12,12,23,23,34,34,45,45,
56,56,67,67,78,78,18,18,
{16}
8b,7,6,5,7b,6,5,4,6b,5,4,3,5b,4,3,2,
{32}
4b/E1,E8,E7,E6,E5,E4,E3,E2,E1,
E8,E7,E6,E5,E4,E3,E2,E1,
E8,E7,E6,E5,E4,E3,E2,E1,
E8,E7,E6,E5,E4,E3,E2,
{1}C1f/A7/E7/E6/E4/E3/A2,B1/B2/B3/B4/B5/B6/B7/B8,
E6/B6/B7/E8/A8/B8/B1/B2,E8/B7/B6/E6/B5/B4/E4,
E2/E4/A1/B1/B2/B3/B4/B5/B6/B7/B8,E1/E2/E4/E5/E6/E8/B3/B7/C,
E1/E2/E4/E5/E6/E7/E8/B6/B2/C,C/B6/B7/B8/B2/B3/B4/E2/E4/E6/E8,
E2/E4/A1/B1/B2/B3/B4/B5/B6/B7/B8,E6/E8/A8/B1/B2/B3/B4/B5/B6/B7/B8,
B4/B5/B6/B7/E4/E6/E8,
E1/E4/E6/C/B1/B2/B3/B6/B7/B8,B1/B4/B5/B6/B7/B8,
B1/B4/B6/B7/C/E8/E6,E6/E8/A8/B1/B2/B3/B4/B5/B6/B7/B8,
B1/B2/B3/B4/B5/B6/B7/B8,E2/E4/E6/E8/Cf,,,,{4}6,5/6,4/6,3/6,
3/6,5/3,4/3,3/4,
{16}3,,3,,4,,4,,5,3,5,3,6,4,6,4,
{2}8hx[2:1],Chf[2:1],
{8}7b-1-5[8:5],,,,,2,2-8-4[4:3],,
C1f,,,,,7,7h[4:5],,{2}5qq2[2:1],,6h[4:1],7h[4:1],
{8}8-4[8:5],,,1h[4:1],,,E2,,2-6[8:5],,,4h[4:1],,,E5,,
4x/5,,B3/B6,3/6x,,B2/B7,2/7x,,{2}8hx[2:1],Chf[2:1],
{8}7bpp4[8:5],,,,,2,2qq5[4:3],,
C1f,,,,,7,7h[4:5],,
{16}5b,,,3b,,,6b,,,2b,,,8b,,,,
{8}1h[4:1],,6,2/5h[4:1],,2,3/4,,
{4}5h[8:1]/6h[8:1],2h[8:1]/4h[8:1],5h[8:1]/7h[8:1],1h[8:1]/2h[8:1],
{8}1/2,3,4/8,7,6/3,4,5/3,2/6,
{2}C1f/7h[2:1],1h[2:1],
{16}8,,8,,1/7,,1/7,,2,6,2,6,2,6,2>4[8:1],6,{8}2-5[8:1],5x,2-6[8:1],6x,
2-7[8:1],7x,2bx,8x,{24}2-7[225#8:1],3,{6}4,{8}5qq1[6:1]*pp1[6:1],5,
,A1,,7<5[8:1],5bx,7-4[8:1],4bx,7-3[8:1],3bx,7bx,2b,B8,{24}7-2[225#8:1],6,{6}5,{8}
4qq8[6:1]*pp8[6:1],4,,A8,,1/7,1b-5b[8:1]/7b,,1b/7b-3[8:1],8,1b-5b[8:1]/7b,,
1b/7b-3[8:1],8,1b-5b[8:1]/7b,,1bx/8bx,8hbx[8:1],,C,,{16}1,2,{8}3/5,3/5,
{16}4,4,{8}4,3/5,3/5,{16}4,4,4,,
3h[8:1]/5h[8:1],,,3h[8:1]/5h[8:1],,,2/6,,{8}2h[8:1]/6h[8:1],,2>5b[8:1],,
2<7b[8:1],6x`B6,2-5b[8:1],6x`B6,2-7b[8:1],6x`B6,2,6x`B6,{24}2-5[225#8:1],1,{6}8,{8}
7-2^3[6:1]*-4^3[6:1],7,,A3,,7b<4b[8:1],3bx`B3,7b>2b[8:1],3bx`B3,7b-4b[8:1],3bx`B3,
7b-2b[8:1],3bx`B3,7,{4}4h,{32}8/4h,7,6,5,,,,,{4}4h,{32}8/4h,1,2,3,,,,,
{8}
3x/4x,3x/4x,3x/4x,3x/4x,5/2,2,3/6,6,
7/4,4,3/8,8,1/2,2,3/7,7,C1f/7h[2:1],1x,1,1,1h[2:1],7,7,7,
{16}8,,8,,1/7,,1/7,,2,6,2,6,2,6,2,6,
2b>5[8:1],,1,8,2-6[8:1],,6,6,2,,7,7,2-5[8:1],,1-6[8:1],8,
2,,1,,3,,3,,{24}5/2-6[8:1],1,8,{16}7,,2,,8,,
7-4[8:1],,6,5,7-3[8:1],,3,3,7,,2,2,8>3[8:1],,3,,
8b-4[8:1],,4bV68[16:3],,8b,,3b,,,,1b,,,,2b/8b,,
2b-5[8:1]/8b,,,,2-8[8:1]/7-3[8:1],,8,,2/7-4[8:1],,,,7-1[8:1]/2-6[8:1],,1,,
2/7V53[16:3],,,,5/7,,2-5[8:1],,,,1/2,,,,7,8,
7b,,1/6,,2,5,3,4,1b,,3/8,,7,4,6,5,
8b,,7,5,6,3,4,,2b/8b,,7,3,6,4,7,3,
7<4[8:1],,8,4,7-3[8:1],,3,3,7,,2,2,7-4[8:1],,8v3[8:1],1,
7,,8,,6,,6,,{24}4h[8:1]/7<4[8:1],8,1,{16}2,,7,,3,,
2-5[8:1],,1,5,2-6[8:1],,6,6,2,,7,7,1-5[8:1],,8,,
1b/7<4[8:1],,6,,{24}7b/8,1,2,{16}3,4x-8[450#4:1],4bx/3x>8[8:1],,2,,{24}4b/3,5,6,{8}7,
7x/8x,7x/8x,7x/8x,7x/8x,1/6,6,2/7,2,
8/3,8,4/7,4,5/6,6,3/7,3,
{16}8,2,8,2,8,2,8,2,6,8,6,8,6,8,6,8,
5,1,5,1,5,2,5,2,5,3,5,3,5,4,5,4,
{32}5b,6,7,8,,,5b,6,7,8,,,5b,6,7,8,,,5b,,,,,,3,,4,,3,,4,,
3b,2,1,8,,,3b,2,1,8,,,3b,2,1,8,{16},5b,,,6,8,6,8,
5,,1/5,,{24}1b/5b,2x/6x,3x/7x,4x/8x,,,1x/5x,,,1x/5x,,,1b/5b,4x/8x,3x/7x,2x/6x,,,
{16}5,1,5,1,5,1,5,1,6,2,6,2,6-3[8:1],2-7[8:1],6,2,
{1}6,
{4}5h[4:3],,,E5,
{1}Chf[1:2],,
{2}8h[4:1],1h[4:1]/C1f,
7h[4:1]/C1f,C1f/2h[4:1],
{8}4x/8x,4/8,3/7,3/7,2/6,2/6,1/5,1/5,
4/8-4[8:1],,,,4x/8x,,2x/6x,,
3b/7b,1,3/5,7,6/4,2,3/5,8,
2b/6b,4,3/8,5,1/7,3,2/8,5,
3b/7b,1/8,2/4,3/7,{16}6b,4b,8b,,5/7,,1/3,,
4b/6b,,8/3,,2/4,,3/7,,2b/8b,,2/8,,{12}3,3,4,
1h,5,3h,8,2h,4,1h,7,5h,1,3h,5,
8h,6,4h,2,4h,6,3h,1,5h,7,3h,5,
{16}2,,2/6,,3,5,3,5,1h[8:1],,6,4,6,4,8h[8:1],,
2-6[16:1],1,2,1,2,,8,,8,,1/7,,2/6,,5/3,,
2/6,,1/7,,7/1h[4:1],6,5,4,3,,6h[4:1]/1,2,3,4,5,,{32}7b,6,{16}7,1,8,{8}1,1/8,2/7,3/6,4/5-1[8:1],,
5/3-8[8:1],3,3/7-4[8:1],7,7/2-5[8:1],2,2/6-1[8:1],6,
6/3>8[8:1],3,3/7<4[8:1],7,7/3,2,1,1,
{12}7h[12:1],3h[24:1],5h[12:1],1h[12:1],7h[24:1],5h[12:1],8h[12:1],3h[24:1],4h[12:1],1h[12:1],6h[24:1],2h[12:1],
{8}7h[4:1],,C,{16}7,E1,7,C,7,E1,7,C,7,E1,{4}7<3[185#4:1]/Cf,3>7[185#4:1],7<3[185#4:1],3>7[185#4:1],
7<3[185#4:1],3>7[185#4:1],7-4[185#4:1],,4<8[185#4:1],8>4[185#4:1],4<8[185#4:1],8>4[185#4:1],
4<8[185#4:1],8>4[185#4:1],4-7[185#4:1],,8-5[8:1]*-4[8:1]/1b,,2-5[8:1]*-6[8:1]/1b,,
5w1[8:1]/4b,,4w8[8:1]/3b,,{32}1,,,,1h[8:3],,,,E8,E7,E6,E5,E4,,,,8,,,,8h[8:3],,,,E2,
E3,E4,E5,E6,,,,{16}1,,,1,,,{8}2,2h,,{16}2,8,2,8,{16}2b,3,4,5,6x/1,5,4,3,2x/7,3,4,5,6x/1,5,4,3,2x/7x,6,5,
4,3x/8,4,5,6,7x/1,6,5,4,3x/8,4,5,6,2h[16:3],,,3h[16:3],,,4h[8:1],,7h[16:3],,,6h[16:3],,,5h[8:1],,
2h[4:1],,,,8<5[8:1],,1,,2,,2,,3x/4x,,,,
3h[4:1]/4,5,6,7,8,,1/2,,1/2h[4:1],8,7,6,5,,3/4,,
4h[4:1]/3,2,1,8,7,,6/5,,6/5h[4:1],7,8,1,2,,4/5,,{20}
4,5,4,5,4,5,4,5,4,5,4,6,3,6,3,6,3,6,3,6,3,6,4,5,3,6,4,5,3,6,4,3,2/6,7,8/3,2,1/5-1[8:1]*<4[1:3],6,7,8,{2}5b,,,,,,,C,
{6}6b/C1f,2b/C1f,C1f/8b,3b/C1f,C1f/7b,C1f/1b,
{32}2h[16:3]/8b,7,6,5,4,3,,,{8},{32}8h[16:3]/1b,2,3,4,5,6,7,,{8},{32}8b/D1/D8,1b>4b>8b[32:62]/7b<4b<8b[32:62]/D2/D7,2b>4b>8b[32:61]/6b>4b<8b[32:61]/D3/D6,3b<4b>8b[32:60]/5b>4b<8b[32:60]/D4/D5,4b,{1},,Ch[16:1]/B2/B3/B6/B7/E3/E7,
