&title=BLACK or WHITE?
&artist=BlackYooh vs siromaru
&first=-0.743
&lv_4=1
&des_4=
&inote_4=
(185){4},{1},,,,,,,,,,,,,,,,,,,,,,,,,,,,,,,,,,,,,,,,,,,,,,,,,,,,,,,,,,,,,,,,,,,,,,,,{4},,{16}7,
8,1,2,
{4}3-7[8:1],Cf,{2}8/1,
E
&lv_5=14+
&des_5=K4bolt
&inote_5=
(185){4},{16},,,,,,,,,,,,3bx,
5,3,5,3,5,3,5,3,5,3,5,3,5,3,5,
4x,5,4,5,4,5,4,5,4,5,4,5,4,5,4,5,
4x,6,4,6,4,6,4,6,4,6,4,6,4,6,4,6,
3x,6,3,6,3,6,3,6,3,6,3,6,3,6,3,6,
2x,6,2,6,2,6,2,6,2,6,2,6,2,6,2,6,
2x,7,2,7,2,7,2,7,2,7,2,7,2,7,2,7,
{8}8/1,8/1,8/1,8/1,8/1,8/1,8/1,8/1,
{16},,,,2bx,2bx,2bx,2bx,2bx,2bx,2bx,2bx,{32}2bx,B2,,,,,,,{8}4/5,
{16}3,3,{8}4h[8:1],{16}3,3,{8}5h[8:1],{16}3,3,{8}4h[8:1],{16}2,2,
{8}5h[8:1],{16}2,2,{8}4h[8:1],{16}2,2,{8}5h[8:1],{16}2x,2x,1x,2x,{8}8xh[8:1],
4h[8:1],{16}6,6,{8}5h[8:1],{16}6,6,{8}4h[8:1],{16}6,6,{8}5h[8:1],{16}7,7,
{8}4h[8:1],{16}7,7,{4}5h[8:1],{16}7,4,7,4,6,5,{8}6>3[8:1],
6xh[4:1],{16},,,,1,4,{8}3h[8:1],{16}8,5,{8}6h[8:1],{16}1,4,
{8}3h[8:1],{16}8,5,{8}6h[8:1],{16}1,4,{8}3h[8:1],{16}8,5,7,8,7,8,
{8}6h[8:1],{16}2,8,2,8,2,8,{8}3h[8:1],{16}7,1,7,1,7,1,
{8}8h[16:1],8h[16:1],7h[16:1]/1h[16:1],1h[16:1]/7h[16:1],2h[16:1]/6h[16:1],2h[16:1]/6h[16:1],{4}3b/5b<3[4:1],
,4-2-8-6b[4:1],,,5-3[8:1]/4-8[8:1],
4/5,7-4[8:1]/2-4[8:1],7/2<4b[4:1],
2,3-5-7-1[4:1],{8},,,,2b,
{16}2b,4b,{8}3b,3b,{12}4,4,4,5,5,5,
{8}7-3[8:1],7,6,5,4-8[8:1],4,3,2,
1-5[8:1],1,8,7,6-2[8:1],6,5,4,
3-7[8:1],3,2-6[8:1],2,1-5[8:1],1,8,8,
{32}E2,E3,E4,E5,E6,E7,E8,E1,E2,E3,E4,E5,E6,E7,E8,E1,E2,E3,E4,E5,E6,E7,E8,E1,E2,E3,E4,E5,E6,E7,E8,E1,
{1}1x>5-7-3[2:15],
,,,1>4-8b[2:7],
,,,{16}1/5,
2,3,4,5,6,7,8,1/5,6,7,8,1,2,3,4,
1,2,3,4,1,2,3,4,1,2,3,4,5,6,7,8,
1/5,6,7,8,1,2,3,4,1/5,2,3,4,5,6,7,8,
5,6,7,8,5,6,7,8,5,6,7,8,1,2,3,4,
8/5,7,6,5,4/8,3,2,1,8/4,7,6,5,4/8,3,2,1,
8/4,3,2,1,8/4,7,6,5,4/8,3,2,1,8/4,7,6,5,
4,3,2,1,8,7,6,5,8,7,6,5,8,7,6,5,
{2}4bh[2:1],5xw1[8:1],
{8}3/7,{16}3,3,{8}5,{16}2,2,{8}1-5[16:1],2-6b[8:1],1,2,
{4}8-5[8:1],8-3[8:1]/4-1[8:1],{2}8/4-7[8:1],
{8}1/8,{16}6,6,{8}4,{16}7,7,{8}8-4[16:1],7-3b[8:1],8,7,
{4}2-4[8:1],2-8[8:1]/6-3[8:1],{2}2/6-1[8:1],
{8}3/6,{16}3,3,{8}5,{16}2,2,{8}8-4[8:1],2-6b[8:1],8,2,
{4}8<5[8:1],3-7[8:1]/8-4[8:1],{2}8>3[8:1],
{8}1/8,{16}6,6,{8}4,{16}7,7,{8}1-5[8:1],7-3b[8:1],1,7,
{4}2-4[8:1],2/8-4[8:1],8/7-5[8:1],7/5,
{8}3/6,{16}3,3,{8}5,{16}2,2,{8}7-3[8:1],1-5b[8:1],7,1,
{4}8w4[8:1],8b,1w5b[8:1],1b,
{8},,7b/5,2b/4,8b/6,3b/1,{4}5b/4b-1b[12:1],
{6}5b-7[12:1],4b-2b[12:1],5b-1[12:1],4b,{48},,,,{16}4,3,2,1,
{8}8-4[8:1],8,{16}5,6,7,8,{8}1-5[8:1],1,{16}5,4,3,2,
{8}1-5b[8:1],1,{16}4,5,6,7,{8}8-4b[8:1],8,{16}4,3,2,1,
{32}8,7,6,5,8,7,6,5,1,2,3,4,1,2,3,4,{8}5b/1b,3b/7b,{16}1-5[8:1],7,3,5,
{4}1w5[8:1],1,{16}2,2,3,3,4,4,5,5,
{1}6>2<6-2[4:9]*>2<8-4[4:19],
{4},,,,,,,,,,,,,,,,5h[8:1],
5h[8:1],6h[8:1],6h[8:1],
5h[8:1]/7h[8:1],5h[8:1]/6h[8:1],4h[8:1]/2h[8:1],4h[8:1]/3h[8:1],
6h[16:3]/5h[8:1],7h[8:1]/5h[16:3],4h[8:1]/3h[16:3],2h[8:1]/4h[16:3],
{2}6b/5-8[8:1]*v7>8[8:1],3b/4-1[8:1]*v2<1[8:1],
{4}7b/8b,6b/5b,1b/2b,3b/4b,
{2}7b/8-5[8:1]*v6>5[8:1],2b/1-4[8:1]*v3<4[8:1],
{8}6b,{16}6b,5b,{8}7b,7b,{12}8b,5b,6b,1b,4b,3b,
{16}8,7,6,5,1,2,3,4,5/1,8,7,6,5/4,3,2,1,
8/7,6,5,4,8,1,2,3,4/5,6,7,8,1/2,3,4,5,
7,6,7,6,7,6,7,6,8,5,7,4,6,3,5,2,
{4}4h[2:1],{16},,,,,,,,5/1,2/6,3/7,4/8,
{4}5-2[8:1]/1-6[8:1],5b/1b,{8}8/1,{16}7,4,,2,{8}5,
7/8,{16}1,4,,6,{8}3,2/1,{16}8,5,,3,{8}6,
{16}7,5,6,6,2,4,3,3,6,4,5,5,3,5,4,4,
{12}3/8,1,2,4/7,6,5,6/1,8,7,2/5,3,4,
{8}1bh[4:1]/5bh[4:1],,,3/7,1h[4:1]/5h[4:1],,,3/7,
{16}2/5,3,4,3/5,4,5,4/6,5,6,5,7,5,8,5,1,5,
{4}2>5[8:1]*-6[8:1],2,7-4[8:1]*-2[8:1],7,
{16}3,5,2,6,1,7,8,8,{2}8b-4[8:1]*s4[8:1],
{8}1-5[8:1],{16}4,4,{8}1-3[8:1],{16}7,7,{8}1-5[8:1],{16}6,6,{4}1,
{8}8-4[8:1],{16}5,5,{8}8-6[8:1],{16}2,2,{8}8-4[8:1],{16}3,3,{4}8,
{8}2>6[8:1],1/7,2/6,{16}8,8,{8}7<3[8:1],8/2,7/3,{16}1,1,
{8}2/8,4/6,7-3[8:1]/1-5[8:1],3/5,,,,,4/5,
{16}4/5,6,{8}8/7v4[8:1],7/8,7b-5[8:1],{32}8b,1x,2x,3x,{8}7b,{32}8b,1x,2x,3x,
{8}5x/4x,{16}5/4x,3,{8}1/2v5[8:1],2/1,2b-4[8:1],{32}1b,8x,7x,6x,{8}2b,{32}1b,8x,7x,6x,
{16}2,1,3,8,4,7,5,6,4,5,3,4,2,4,1,4,
8b,4,8b,4,8b,4,8b,4,{12}3b/7b,3b/7b,3b/7b,6b-3[8:1]/2b-7[8:1],2b/6b,2b/6b,
,,,{4}1>2>3<4<5-3v2[2:7]/5<6<7>8>1-5-7b[2:7],
E
&lv_6=14+
&des_6=K4ovo
&inote_6=
(185){4},
E
