&title=RGB
&artist=MEMODEMO; AQUASINE
&first=0
&des=挑战失败
&clock_count=4
&lv_5=9+
&inote_5=(163)
{1},,
{8},1>4qq5[8:5],,,,,,,
{8}7h[8:3],,,
{16}5,6,4x,5,3h[4:1],,,,4,,5h[16:5],,,,,4h,5h,4h,5x,,6h,,7b<4[8:4]/3h[4:2],,,,
{4},,
{8}2>8p2[8:8],1,8h[8:8],,
{1},
{8}1b,3/7,
{16}4,5,4,,6h[8:1],,,,2bh[8:1]/4bh[8:1],,,,2,,1-5[8:1],,,,1/6<7>8>1>2>3<4<5[8:3]b,,,,4/6,,,,,,
{4}C,,,
{8}4xh[8:14],,,,,,,,,,,E4,E5,E6,
{16}E7/B6/B7,,,E3/B3/B2,,,5<8>2>3[8:13],,
{8},,,,E5/B4/B3,,,,E7/B6,,,,E1,,,,
{12}7,7,6,6,5,5,4,4,3,3,2,2,6,5,7,3,4,2,
{6}5,4/6,3/7,
{12},,,,,3,
{8}3>1[8:2],,4,,5<7[4:1],,4,,
{12}2,3,4,7,6,5,
{8}C,,
{16},,,6,5xh[4:1],,,,,,,3,4xbh[4:2],,,,,,,,5,6,7,8,1,2,3,4,
{1}5w1[8:4],
{8}3h[16:3]/6h[16:5],,,,
{16},2x/7x,,,4x-8[8:1]b/5x,,3x/6x,,,,,,7,1,8,1,7,,6,,3,,4,,5/6,,7,8,,8,7,,2,4,3,,5-1[8:1]b,,6,,4/5,,,,2,4,3,5,4h[8:1],,7,5,6,4,5,3,2b/4b,,,1b/6b,,,Cf/B1/B2/B5/B6/B7/B8,,,,,,4,5,4,5,3h[4:3],,,,5v4p5[4:2],,,,,,,,,,,,
{16}2h[8:1],,4,3,5,4,6,5,7,8,5,2,6,1,4,3,
{16}5-1[8:1],,,,3,,3b,,8,2,7,3,6x/4x,,,,
2,5,4,5,3,,2,,7,1,6,2,5b/3b,,,2b/8b,,,5bw1[8:1]/6b,,,,5bpp3[8:11]b,,
{1},
{8},,,,
{16},,,,,,,,4,5,6h[4:1],,,,,,2,,3,4,3,,,5x>1[8:1]b,,,5/6,,,,8,7,6,5,
4/8bw4[8:1]b,,,,8b,,,,
{8}2b-6[8:1]b/6b,,7,8h[4:1],5x-8[8:1]b,3h[8:1],5,3,4-7[8:1]b,2h[8:1],4,2,
3-6[8:1]b,1h[8:1],3qq6[8:3]b,2,3,,,,E8,,1hb[4:1],,4>1[8:1]b,6h[8:1],4,6,5>2[8:1]b,7h[8:1],5,7,6<1[8:1]b,5,4/6,3,2x>5[8:1]b,1,8/2,7,6h[4:3],,,,2hb[4:1],,,,C,E5f/B4/B5,2x,2x,
{16}4b/7b,,,3b/5b,,,2b/6b,,,,3,4,2,,6,5,7,,3,4,1,,6,5,8<5[8:1],,,,4/8,,3h[8:1],,4-8[8:1],,2x>5[8:1]b,,4,,2,,7h[8:7],,8xb,,6,,1xb,,5,,2xb,,4,,3xb,,5h[8:3],,,,,,4,,7b/5b,,,2b/4b,,,1b/8b,,Ch[8:6],,,,,,,,,,,,B1/B2/B5/B6/B7/B8,,,,2/5,,3,4,,6,5,,7/4,,8,1,8,,
{1}2qq6[8:5]/7h[8:7],
{8},3h[4:1],,4h[4:1],,5h[4:1],,6h[4:1],,3,,
{16}1,2,3,4,8,7,6,5,2,3,4,5,
{8}7V15[16:3],,7/3,2V48[16:3],,2/6,7h[8:3],,,
{16}1,6,2,5,3qq4[8:3],4,,4,3,,,,,,6h[8:1],,5,4,3,2,8,7,6,5,2h[4:1],,,,4,,1,1,6,6,8>5[8:2],,8,,,,,,6,,7-3[8:1],,,,7b/4b-7[8:1]*-1[8:1],,,,4b,,,,
2,,4>6[4:1],,,,,,5bw1[8:1],,,,5b,,,,3/7,,3/7,,,,2-6[8:1],,,,7-4[8:1],,,,3,,2>5[8:1],,1,,8,,7,,6h[8:1],,,,4/5,,3-7[8:1],,6V48[16:3],,3,,6,,1>4[8:1]b,,,,1b<6[8:1]b,,,,1bpp5[8:3]b,,,,1b,,,,,,7,,6,,4,,3,,2,,8,,1-5[8:1]/7-4[8:1],,,,1/7,,,,2-6[8:1],,6,,2,,7,,8-4[8:1]/4-1[8:1],,,,4/8,,,,2-5[8:1],,5>7[4:1],,2,,7,,6-2[8:1]b,,,,6b/4b-8[8:1]b,,,,5bpp3[8:3]/4b,,,,5,,,,,,
{4}1-4-8-5s1[8:21]b,,,,,,,,,,,
{8},,,,E4,E5,E6,
{16}A7/E7/A6,,,E3/A3/A2,,,5v3<8[8:7]*v3<8[8:7],,,,,,,,,,,,,,,,,,Ch[8:4]/B6/B5/E6f,,,,,,,,,,,,,,,,
{12}2/5,,3,4,,4,3,,,7/4,,6,5,,5,7,,7,4,,4,5,,5,2-7-5v4-2[12:11]*-7-5v4-2[12:11],,,,,,,,,,,,,,,,8,1,7h[4:1],,,,4,5,3,,2,1-5[8:1]*-5[8:1],,8,1,,,7,,6,5-1[8:1]*-1[8:1],,4,5-3-6-2[8:4]*-3-6-2[8:4],,,5,,,,,,
{8}7h[8:8],,,,,,,,8>3[8:1],,8<5[8:1],,8-4[8:1],,8qq3[4:4],,8,,,,,,,,,E2,E1,E8,E7,E6,E5,E4,7V51[16:6],,
{16},3xh[16:11],,,,,,,,,,,4-8[8:1],,,,1-5[8:1],,,,7p3[8:1],,,,E1,,,,2-5[8:1],,,,6<3[8:2],,,,8h[4:1],,,,,,,,7-4[8:1],,,,3>6[8:2],,,,1h[4:1],,,,,,,,,,4/3,,,6/1,,,7-3[8:1]/4,,,,2,,,,1>5[8:1],,,,6-2[8:1]/1,,,,4<7[8:1]/6,,,,4/3,,,,E2/D2,,,,7/3,,,,5/4,,,,
{32}2b>5[8:1]b/6bh[4:4],1,8,7,,,,,2,,,,,,,,2b>5[8:1]b,1,8,7,,,,,
{8}2s6[4:1]b,,2,,,,7,,5/6,,8h[4:4]`4hb[1:1],,,,,,,,8?-5[8:1]`4?-1[8:1]*-1[8:1],,,,2/7,,4/5,,6h[8:3],5,4,3h[8:5],
{16},,E8,E1,E2,E3,E4,E5,E6,D7,D8,D1,D2,D3,D4,D5,
{8}2x,,4/6,,
{32}7b<4[8:1]b/3bh[4:4],8,1,2,,,,,7,,,,,,,,7b<4[8:1]b,8,1,2,,,,,
{8}7-3[8:1],,7,,,,
{8}E3/A3/D3,,
{8}5/6,8,3/4,1,
{16}7-4<5[8:1],8,5-1[8:1],2,7,,1,,2,,3,,5,4,6,5,7xb-4[8:1]b,,8x-3[8:1],,7,,8,,
{8}6<5[8:5],,,,,,,,1-4[8:1],,1/5-8[8:1],,5/2-5[8:1]*-6[8:1],,2,,
{16}7bh[4:1]/3bh[4:1],,,,,,6,4,5,3,4,2,6,,4/7,,2-5[8:1],,5-2[8:1],,2-6[8:1],,6-3[8:1],,8<5[8:1],,8>3[8:1],,,,,,6,,4/5,,3/7,,1,7,2,6,3,5,
{12}4hx,4hx,4hx,
{8}4xV25[4:1]b,,4xV63[4:1]b,,4x-1-5[4:1]*-1-5[4:1],,4x-7-3[4:1]*-7-3[4:1],,4x-8[8:1],,4x,,
{16}7,5,6,,
{24}3,4,3,4,3,4,
{4}2x-6[8:1],
{8}7,7x,
{16}3b/4b,,,5b/7b,,,2b/8b,,,,3,4,1,,6,5,8,,2,4,3,,7,5,6v1[16:2],,,,4/6,,2h[8:1],,8-4[8:1],,7V51[16:3]b,,8,,7,,3-8[8:1],,2b,,6-1[8:1],,7b,,4-8[8:1]b,,2b,,5-1[8:1]b,,7b,,3h[8:3],,,,,,5,,2b/4b,,,7b/5b,,,8b/1b,,2h[8:1],,4,3,8,1,7,5h[8:1],,6,5,7,3,4,2,5,1>6[8:2]b,,6,6,,7,7,,8-4[8:1]*-4[8:1],8!-4[16:1],4<3[8:5],4,8,,
{4}2h[8:5],,,,
E
