&title=Can You Send Me 30K
&artist=Simi_n_ChapChap
&first=0.049
&des=lhg
&des_5=lhg
&lv_5=13
&inote_5=(125){4}7h[16:11]/6h[2:1],,,,{1}8h[2:1]/4h[16:11],
{8}7h[16:3]/6h[16:3],,,5,{2}7h[16:3]/6h[16:3],
{4}7h[4:1]/5h[8:1],6,{2}7h[16:3]/6h[16:3],
(143){8},,,,,2h[8:1],{16}6,5,{8}8,
{4}1h[8:1]/2h[8:1],8h[8:1]/7h[8:1],{16}2h[8:1]/1h[8:1],,,8h[8:1]/1h[8:1],,,{8}7/8,
{4}1h[8:1]/2h[8:1],8h[8:1]/7h[8:1],{16}2h[8:1]/1h[8:1],,,8h[8:1]/1h[8:1],,,{8}7/8,
{4}1h[8:1]/2h[8:1],8h[8:1]/7h[8:1],{16}2h[8:1]/1h[8:1],,,8h[8:1]/1h[8:1],,,{8}7/8,
{4}1h[8:1]/2h[8:1],8h[8:1]/7h[8:1],{2}7bh[16:3]/6bh[16:3],
{4}5h[8:1]/6h[8:1],1h[8:1]/8h[8:1],{16}6h[8:1]/4h[8:1],,,2h[8:1]/7h[8:1],,,{8}1/8,
{4}5h[8:1]/6h[8:1],1h[8:1]/8h[8:1],{16}6h[8:1]/4h[8:1],,,2h[8:1]/7h[8:1],,,{8}1/8,
{4}5h[8:1]/6h[8:1],1h[8:1]/8h[8:1],{16}6h[8:1]/4h[8:1],,,2h[8:1]/7h[8:1],,,{8}1/8,
{4}5h[8:1]/4h[8:1],1q5p1[8:3]/8<6<8[8:3],{8},,,,2,
{16}5,4,{8}6,7/5,1h[8:1],{16}8,2h[8:1],,8,{8}3,
7>3v5[12:5],6,{4}7/5h[8:1],{16}4h[8:1],,,2h[8:1],,,{8}1,
7,{16}4,5,{8}3,2/4,7h[8:1],{16}1,6h[8:1],,1,{8}5,
{2}4p8[8:1]*v7[8:1],3bh[16:3]/2bh[16:3],
{8}2,{16}6,5,{8}6,7/4,3h[8:1],{16}8,2h[8:1],,8,{8}1,
7>3v5[12:5],6,{4}7/2h[8:1],{16}4h[8:1],,,2h[8:1],,,{8}1,
7,{16}3,4,{8}3,2/5,8h[8:1],{16}1,7h[8:1],,1,{8}6,
{2}4p8[8:1]*v7[8:1],{4}5h[8:1]/1h[8:1],{8}6/4,{16}6,5,
{8}7,7h[8:3],4,5,{16}6-4[12:1]*-1[12:1],,,6,,,,,{4}2/3h[4:1],
{8}1,8/4h[8:1],{16}8v1[12:1],,,4/8,,,,,4-7[12:1]/5-7[12:1],
,,5/4,,,,,8v1[8:1]*v5[8:1],,,8,,,,,{8}6,
6h[4:1],1,8,{16}7-4[12:1]/6v3[12:1],,,7/6,,,,,{8}2/1,
8/7,6/5,3/4,2h[8:1],{16}8,8,1,6,1,5,
{8}2h[8:1],4,1/2,{16}3,4,{8}3,{16}6,5,7,4,6,3,
5>2[12:1],,,5/7,,,{8}6,{16}5-1[12:1],,,5/7,,,{8}6,
{4}5/1V73[4:1],{8}1/4,5,{16}6-4[12:1]*v7>8[8:1],,,6,,,,,{4}1h[8:1]/2h[8:1],
7h[8:1]/6h[8:1],{16}1h[8:1]/3h[8:1],,,5h[8:1]/4h[8:1],,,{8}8/7,
{4}3h[8:1]/4h[8:1],1h[8:1]/2h[8:1],{16}6h[8:1]/5h[8:1],,,3h[8:1]/1h[8:1],,,{8}8/7,
{4}2h[8:1]/1h[8:1],5h[8:1]/4h[8:1],{16}8h[8:1]/6h[8:1],,,1h[8:1]/2h[8:1],,,{8}4/6,
{4}5<7[8:1]/3q7[8:1],3/5,8bh[16:3]/6bh[16:3],{16}3,3,,,{4}8h[8:1]/7h[8:1],
2h[8:1]/3h[8:1],{16}8h[8:1]/6h[8:1],,,4h[8:1]/5h[8:1],,,{8}1/2,
{4}6h[8:1]/5h[8:1],8h[8:1]/7h[8:1],{16}3h[8:1]/4h[8:1],,,6h[8:1]/8h[8:1],,,{8}1/2,
{4}7h[8:1]/8h[8:1],4h[8:1]/5h[8:1],{16}1h[8:1]/3h[8:1],,,8h[8:1]/7h[8:1],,,{8}5/3,
{4}4>2[8:1]/6<1[8:1],6/4,{8}8bh[16:3]/6bh[16:3],{16},,,,4,4,
{8}5h[8:1],{16}3,6,{8}2h[8:1],1,8h[8:1],{16}4,7,3,7,2,6,
{8}1h[8:1],{16}7,2,{8}6h[8:1],5,4h[8:1],{16}8,3,7,3,6,2,
{8}8h[8:1],{16}2,7,{8}3h[8:1],4,5h[8:1],{16}1,6,2,6,3,7,
{8}4h[8:1],{16}6,3,{8}7h[8:1],8,{16}1/7bh[4:1],,,6h[8:1],,,8,8,
{8}4h[8:1],{16}6,3,{8}7h[8:1],8,1h[8:1],{16}5,2,6,2,7,3,
{8}8h[8:1],{16}2,7,{8}3h[8:1],4,5h[8:1],{16}1,6,2,6,3,7,
{8}1h[8:1],{16}7,2,{8}6h[8:1],5,4h[8:1],{16}8,3,7,3,6,2,
{8}5h[8:1],{16}3,6,{8}2h[8:1],1,8/2h[16:3],E4/B4/A4,B6/E7/E6,{16}E2,E3,
{8}7/E4,7h[4:1],2,1,{16}8>1s5b[6:1],,,8/1,,,,,{4}3h[4:1],
{8}1,8/4,{16}8-5b[8:1]/4v1b[8:1],,,4/8,,,,,2-5[12:1]/5-7[12:1],
,,5/2,,,,,8v5[12:1]/4-1[12:1],,,8/4,,,,,{8}6,
6h[4:1],2,3,{16}4qq3[8:1]/5s1<8[8:1],,,4/5,,,,,{8}6x/5x,
4x/3x,2/1,7/8,6h[8:1],{16}4,4,5,2,5,1,
{8}6h[8:1],8,5/6,{16}7,8,{8}7,{16}2,1,3,8,2,7,
1<6[12:1],,,1/3,,,{8}2,{16}1-5[12:1],,,1/3,,,{8}2,
{4}1/5V37[16:3],{8}5/8,1,{16}2-8[12:1]*v3<4[8:1],,,2,,,,,{4}1h[8:1]/2h[8:1],
7h[8:1]/3h[8:1],{8}4/1h[8:1],{16}4,8,4,7,{8}4,
{4}4h[8:1]/6h[8:1],8h[8:1]/3h[8:1],{8}2/6h[8:1],{16}1,5,2,4,{8}2,
{4}2h[8:1]/1h[8:1],7h[8:1]/3h[8:1],{8}4/1h[8:1],{16}5,7,4,6,{8}3,
{4}5<7[8:1]/3q7[8:1],3/5,8bh[16:3]/6bh[16:3],{16}3,3,{8}6,
{4}8h[8:1]/7h[8:1],2h[8:1]/6h[8:1],{8}5/1h[8:1],{16}4,1,4,2,{8}4,
{4}5h[8:1]/3h[8:1],1h[8:1]/6h[8:1],{8}7/3h[8:1],{16}8,4,7,5,{8}7,
{4}7h[8:1]/8h[8:1],2h[8:1]/6h[8:1],{8}5/8h[8:1],{16}5,7,4,6,{8}3,
{4}2<8[8:1]/4<7[8:1],4/2,{8}6bh[16:3]/8bh[16:3],{16},,,,2,1,
{4}2-5[8:1],2/8,{16}7pp4[4:1],,,7/5,,,{8}3,
{4}2-5[8:1]*V46[8:1],2,{16}7qq1[4:1],,,7/2,,,{8}3,
{4}4-8[8:1],4/6,{16}5pp8[4:1],,,5/3,,,{8}2,
{4}1w5[8:1],1,7/3bh[16:3],{16}6,6,{8}1,
{4}7-4[8:1],7/1,{16}2qq5[4:1],,,2/4,,,{8}6,
{4}7-4[8:1]*V53[8:1],7,{16}2pp8[4:1],,,2/7,,,{8}6,
{4}5-1[8:1],5/3,{16}4qq1[4:1],,,4/6,,,{8}7,
{4}8w4[8:1],8,{16}4,5,3,5,4,5,{24}3,,3,
{8}6,6h[8:3],1,8,{16}7-3[12:1]*-4[12:1],,,7,,,,,{4}3/2h[8:1],
{8}4/2-8[8:1],1,{16}2/5v4[12:1],,,5,,,,,{8}8/1,
{16}6-2[8:1],3,,,{8}6/4,5,{16}8<5[8:1],4,,,{8}8/2,
3,3h[4:1],8,1,{16}2>5[12:1]/3v6[12:1],,,2/3,,,,,{8}3x/4x,
5x/6x,7x/8x,2x/1x,3h[8:1],{16}5,5,4,7,4,8,
{8}3h[8:1],1,4/3,{16}2,1,{8}2,{16}7,8,6,1,7,2,
8V61[16:3],,,8/6,,,{8}5,{16}4v3[8:1],,,4/6,,,{8}7,
8/4,3,4/6,1,{16}8>1s5b[8:1]/2pp3>2b[8:1],,,8/2,
E
