&title=Lostwizz
&artist=s-don
&first=0.3
&des_1=Seanangle
&des_2=Seanangle
&des_3=Seanangle
&des_4=Seanangle
&des_5=Seanangle
&lv_5=14
&des_6=Seanangle
&des_7=Seanangle
&des=Seanangle
&inote_5=(155){1},
{1}4-8[4:3],
{4}7hb[4:4],,8,,
{4}2h[4:4],,1,{24}1,,,1,8,7,
{4}6h[4:4],,8,,
{4}3-8[8:1],4<7[8:1]/3,4/8w4[8:1],8,
{4}2hb[4:4]/6,,1,,
{4}7h[4:4],,8,{24}8,,,8,1,2,
{4}3h[4:2],,1,,
{16}74,,5,6,5,,74,,8-4[8:1]/3,,2,,81,,,,
{8}2h[8:3],,,1,,,3>8[4:1]/8-4[8:1],,8<2[4:2]/Cf/3,,,,,,,,
{8}7h[8:3],,,8,,,6<1[4:1]/1-5[8:1],,1>7[4:2]/Cf/6,,,,1s5[8:1],,,,
{16}28,,,3,4,,25,,1,8,,8,6,,54,,
{16}71,,,6,5,,74,,8,1,,1,3,,45,,
{16}2,5,2,5,3,6,3,6,
{16}2x,3x,4x/8x,7x,6x/1x,2x,3x/7x,6x,
{4}5x<8[8:1]/1b,4>1[8:1]/5,4-7[8:1]/6,8w4[8:1]/4,
{16}8,,,,26,,3,4,2,,5,4,6,,3,4,2,,6,5,7,,2x,2x,1xs5[4:1],3x/8x,,,15,,,,
{16}8,,5,5,7,,21,,3,8,4,7,5h[4:1],,,,
{16}8,,,52,,,74,,2>5[8:1]/6<1[8:1],,,,2x-7[8:1]/6x-3[8:1],,,,
{16}2x/6x-1[8:1],,,,62,,,,34,,2,8,1,,56,,73,,84,73,,84,73,,2x/6x,,,,{12}51,51,51,
{16}51,,2,4,3,,78,,1,6,2,5,3,4,3,4,
{16}2bx,5,4,7bx,4,5,2bx,5,2bx,5,4,7bx,4,5,2bx,5,
{8}1bx/8bx,,3h[16:1]/5h[16:1],3h[16:1]/5h[16:1],4h[16:1]/6h[16:1],4h[16:1]/6h[16:1],8h[16:1]/7h[16:1],4h[16:1]/6h[16:1],1h[16:1]/2h[16:1],5h[16:1]/3h[16:1],8h[16:1]/1h[16:1],2h[16:1]/4h[16:1],1h[16:1]/8h[16:1],7h[16:1]/5h[16:1],6h[16:1]/4h[16:1],5h[16:1]/3h[16:1],
{4}18,27,{24}3,4,5,6,7,8,15,4,3,2,1,8,
{16}73,,4,6,4,6,4,6,5-1[8:1],5,5,5,5,,,,
{8}7bx/3bx,,6h[16:1]/4h[16:1],6h[16:1]/4h[16:1],5h[16:1]/3h[16:1],5h[16:1]/3h[16:1],1h[16:1]/2h[16:1],5h[16:1]/3h[16:1],8h[16:1]/7h[16:1],4h[16:1]/6h[16:1],1h[16:1]/8h[16:1],7h[16:1]/5h[16:1],8h[16:1]/1h[16:1],2h[16:1]/4h[16:1],3h[16:1]/5h[16:1],4h[16:1]/6h[16:1],
{4}81,76,23,45,
{16}7,7,{32}2,3,4,,{16}6,6,{32}1,2,3,,{32}8,1,2,3,4,5,6,7,8b-4[8:1],,,,,,,,
{16}8<5[8:1]/3,,1,1,8-4[8:1],,3,,8<5[8:1],,2,2,8,,1,,
{16}1,7,1,7,2,6,2,6,4,7,3,5,1,,73,,
{16}6-1[8:1],5,,5,6,,4,,
{16}2v5[8:1],1,,1,2,,8,,
{8}73,7bh[4:1]/3bh[4:1],,,1-3[8:1]/5-7[8:1],,1b-5[8:1],,
{16}1>4[8:1]/6,,8,8,1-5[8:1],,6,,1>4[8:1],,7,7,1,,5,,
{16}8,2,8,2,7,3,7,3,5,2,6,4,8,,26,,
{16}3-8[8:1],4,,4,3,,5,,
{16}7v4[8:1],8,,8,7,,1,,
{8}2-8[8:1]/6-4[8:1],,2-4[8:1]/6V84b[4:1],,26,,1q4b[8:5]*-6[8:1],,
{4}1,8qq5[4:2],8,5V31[4:1],1V74[4:1],4<1[4:1],1<4[4:1],3,
{16}2-4[8:1],,8,8,2-6[8:1],,5,5,2-4[8:1],,8,8,2,,5,,
{4}7qq4[8:5]/8h[4:1],,8-3[8:1],8,
{16}1/8<6[8:1],,3,3,8-3[8:1],,2,2,8-5[8:1],,1,1,8,,3,,2,1,3,5,8,7,1,6,2,5,1,8,37,,4,,
{8}5-1[8:1]/7,6,52,3,{16}4,8,3,7,2,6,1,5,
{4}8h[4:1]/4h[4:1],,2/6-2[8:1],4w8b[8:1]/6,
{1}4pp7<8[4:15]/Cf/B6/B2,,,,
{8}6h[4:4],,,,E6,C,B4,B2,
{8}3h[4:4],,,,E4,C,B5,B7,
{16}8h[16:5],,,,,1,,1,8,,1,72,,,Ch[8:5],,
{4},,6-2[8:1],1s5[8:1]*v3[8:1],
{16}1b,,,,,2,,2,1h[8:3],,,,,,,,
{32}1,28,37,46,5,,,,{16},4,,5,4h[4:1]/5h[4:1],,,,,,,,
{16}7h[4:1]/8,,,,,8,,8,7h[8:3],,,,,,,,
{16}75,,,18,,24,,15,1>4[8:1]/5<8[8:1],,,,5-1[8:1],,,,
{16}5,,,,2,8,2,8,3,7,3,7,2,6,2,6,
{16}7h[8:1]/1h[8:1],,,,1,7,1,7,2,6,2,6,3,5,8,,
{32}7b/1,6,5,4,,,,,8b/2,3,4,5,,,,,{32}7,6,5,4,{32}2,3,4,5,{32}8,7,6,5,{32}1,2,3,4,{8}8h[4:2],,1,,{32}1,2,3,4,5,6,7,8,1,2,3,4,5,6,7,8,
{16}1-5[8:1],,6,6,1,,8,,7,4,5,1,4,3,6,,
{16}8-4[8:1],,3,3,8,,1,,2,5,4,8,5,6,3,,
{16}1>4[8:1],,6,6,1,,8,,5,7,6,1,4,3,8,,
{16}46,,,18,,25,,74,8-5[8:1]/5-3[8:1],,,,85,,,,
{16}2-5[8:1],,4,4,2,,6,,8,5,6,2,4,3,6,,
{16}7-4[8:1],,5,5,7,,3,,1,4,3,7,5,6,2,,
{16}1-5[8:1],,6,6,1,,8,,7,4,5,1,4,3,6,,
{16}7h[8:1]/5h[8:1],,,2h[8:1]/4h[8:1],,,8h[8:1]/7h[8:1],,,1h[8:1]/2h[8:1],,,45,,72,,
{32}3,4,5,6,7,8,1,2,{16}3/6-1[8:1],,7,,6/3-8[8:1],,4,,7-4[8:1]*-3[8:1]/3,,6,,
{16}7,,,,{16}5/2v5[8:1],,1,,2/7-4[8:1],,8,,3-8[8:1]*-7[8:1]/7,,2,,
{16}3,,,,2,4,3,3,7,5,6,6,34,,25,,
{16}78,,,45,,12,,12,8-4[8:1]/4,,,,8>3[8:1]*<5[8:1],,,,
{16}8b,,,,,,,,2h[16:3],,,1,,,12,,
{16}74,,,,,,,,7h[16:3],,,8,,,87,,
{16}2,4,3,3,7,5,6,6,2,5,3,8,5,6,2,4,
{16}1h[16:1]/3h[16:1],,,4h[16:1]/5h[16:1],,,6h[16:1]/8h[16:1],,,4h[16:1]/5h[16:1],,,2-5[8:1]/7-4[8:1],,18,,
{16}2b/7b,,,,1,8,1,8,4,6,4,6,1,8,1,8,3,5,3,5,1,8,1,8,2,7,1,8,2,7,1,8,
{4}2-8[8:1]/7-3[8:1],2>6[4:1]/7,2/6v1[4:1],8,
{16}8,,8,8,8,8,8,8,8-4b[8:1],8,8,8,8>3[8:1]*<5[8:1],,,,
{16}8,,,,7,7,5,6,2,2,4,3,8,8,5,6,1,4,3,4,1,5,4,5,1,6,5,6,45,,17,,
{16}2,,38,,7,,62,,3xh,5,4,5,7xh,5,4,5,
{16}2hb,4,8h,6b,4h,1,5hb,7,3h,5b,1h,4,8hb,,6hb[16:4]/2hb[16:4],,,,,,
{32}2b/6b,73,84,15,
E
