&title=イヴステッパー
&artist=ヒトリエ
&first=0.024
&des=哟噜
&wholebpm=138.000
&lv_5=13+
&des_5=
&inote_5=(138)
{16},,,,
,,,,
,,,,
,,,,
{16},,,,
,,,,
,,,,
4b/5b,,,,
{16}3<5[16:2],,,,
5,,,,
3<5[16:2],,,,
6,,,,
{16}3s7[16:4],,,,
7s3[16:4],,,,
,,,,
8,,,,
{16}6>4[16:2],,,,
4,,,,
6>4[16:2],,,,
3,,,,
{16}6z2[16:4],,,,
2z6[16:4],,,,
,,,,
1,,,,
{16}2-4[16:2],,,,
4,,,,
2-4[16:2],,,,
5,,,,
{16}2z6[16:4],,,,
6z2[16:4],,,,
,,,,
8,,,,
{16}7-5[16:2],,,,
5,,,,
7-5[16:2],,,,
4,,,,
{16}7s3[16:4],,,,
3s7[16:4],,,,
,,,,
1,,,,
{16}3h[16:4],,4,,
5,,2h[16:4],,
4,,5,,
1h[16:4],,4,,
{16}5pp4[16:6],,6,,
3,,4,,
5,,3,,
4,,5,,
{16}6h[16:4],,5,,
4,,7h[16:4],,
5,,4,,
8h[16:4],,5,,
{16}4qq5[16:6],,3,,
6,,5,,
4,,6,,
5,,4,,
{16}3h[16:4],,4,,
4h[16:4],,5,,
5h[16:4],,6,,
6h[16:4],,8,,
{16}8,,7,,
7,,5,,
5,,3,,
3,,2,,
{16}2h[16:4],,4,,
4h[16:4],,5,,
5h[16:4],,7,,
7h[16:4],,8,,
{16}1,,2,,
3,,4,,
5,,6z2[16:3],,
7/3,,,,
{16}1b,,,,
5/3h[16:4],,,,
2-5[16:2],,,,
1/2,,,,
{16}6>3[16:2],,,,
3/6,,,,
2/7,,6,5,
6,3,4,3,
{16}5h[16:4],,,,
6V48[16:4],,,,
4/6,,,,
2z6[16:4],,,,
{16}6z2[16:4],,,,
8,,,,
,,6,1,
8w4[16:2],,,,
{16}8b,,,,
4,5,4,5,
4,5,4,5,
4,5,4,5,
{16}3,5,4,5,
3,5,4,5,
3,6,4,5,
3,6,4,5,
{16}2,5,4,5,
2,5,4,5,
2,6,4,5,
3,7,4,5,
{16}2,7,4,6,
1,7,3,5,
2,7,5,6,
2,8,3,4,
{16}2b,,1,,
3/7h[16:2],,5,,
6/2h[16:2],,4,,
3/7h[16:2],,5,,
{16}2h[16:2]/6<1[16:2],,4>1[16:2],,
6p4[16:4],,4,,
6,,,,
1,,2,,
{16}3/4<7[16:2],,,,
2,,3,,
8/4-8[16:2],,,,
5,,7,,
{16}1,,3,,
6/5,,7,,
4-8[16:2]/2-5[16:2],,,,
2/4,,,,
{16}3/7h[16:2],,5,,
6/2h[16:2],,4,,
3/7h[16:2],,5,,
6/2h[16:2],,4,,
{16}7h[16:2]/3>8[16:2],,5<8[16:2],,
3q5[16:4],,5,,
3,,,,
8,,7,,
{16}5/6-1[16:2],,,,
2,,3,,
8/4-8[16:2],,,,
7,,6,,
{16}5/2,,3,,
4/7,,6,,
5/1w5[16:2],,,,
1b,,,,
{16}8/2h[16:2],,4,,
1/7h[16:2],,5,,
8/2h[16:2],,4,,
1/7h[16:2],,5,,
{16}2h[16:2]/8<5[16:2],,4>1[16:2],,
8-4[16:2],,4V61[16:3],,
8,,,,
2,,3,,
{16}8/4>1[16:2],,,,
6,,5,,
8/4-8[16:2],,,,
1,,3,,
{16}5,,7,,
1/2,,3,,
6>3[16:2]/5-1[16:2],,,,
5/6,,,,
{16}1/7h[16:2],,5,,
8/2h[16:2],,4,,
1/7h[16:2],,5,,
8/2h[16:2],,4,,
{16}7h[16:2]/1>4[16:2],,5<8[16:2],,
1-5[16:2],,5V38[16:3],,
1,,,,
7,,6,,
{16}1/5V74[16:4],,,,
4-8[16:2],,3,,
2,,,,
1/7,,6,,
{16}5/2,,3,,
7/4,,6,,
5/1w5[16:2],,,,
1b,,,,
{16}3/7,,5,,
2h[16:2],,4,4,
3,3,8,,
2-4[16:2],,1,,
{16}4/2V86[16:4],,,,
6V48[16:4],,,,
,,,,
7,,,,
{16}6/2,,4,,
7h[16:2],,5,5,
6,6,1,,
7-5[16:2],,8,,
{16}5/7V13[16:4],,,,
3V57[16:4],,,,
,,,,
1,,,,
{16}3/7,,5,,
2h[16:2],,4,4,
3,3,8,,
2-4[16:2],,1,,
{16}4/2V86[16:4],,,,
6V48[16:4],,,,
,,,,
7,,,,
{16}6/2,,4,,
7h[16:2],,5,5,
6,6,1,,
7-5[16:2],,8,,
{16}5/7V13[16:4],,,,
3V57[16:4],,,,
,,,,
1,,,,
{16}8b-5[16:8],,,,
4,,,,
4,,,,
4,,,,
{16}4q5[16:10],,,,
5,,,,
6,,,,
7,,,,
{16}8-3[16:8],,,,
4,,,,
4,,,,
4,,,,
{16}4q5[16:10],,,,
5,,,,
6,,,,
7h[16:2],,,,
{16}7pp6[16:12],,,,
3,,,,
3,,,,
3,,,,
{16}3pp2[16:12],,,,
6,,,,
6,,,,
6,,,,
{16}6pp3[16:12],,,,
2,,,,
2,,,,
2,,,,
{16}2-6[16:4],,,,
6V41[16:6],,,,
8-4[16:2],,,,
8b,,,,
{16}2/6h[16:4],,,,
7-4[16:2],,,,
8/7,,,,
2/1,,,,
{16}3h[16:2],,4,,
6h[16:2],,5-2[16:2],6,
,,8,,
6,,,,
{16}7/3h[16:4],,,,
2-5[16:2],,,,
1/2,,,,
7/8,,,,
{16}6h[16:2],,5,,
3h[16:2],,4-7[16:2],3,
,,1,,
3,,,,
{16}5/8h[16:4],,,,
6-2[16:2],,,,
8/6,,,,
8/1,,,,
{16}2h[16:2],,4,,
7h[16:2],,5>2[16:2],7,
,,8,,
6,,,,
{16}4/1h[16:4],,,,
3-7[16:2],,,,
1/3,,,,
1/8,,,,
{16}7h[16:2],,5,,
2h[16:2],,4<7[16:2],2,
,,1,,
3s7[16:24],,,,
{16}8b,,,,
,,,,
,,,,
,,,,
{16}8,,,,
8,,,,
8,,,,
8/1,,,,
{16}4,5,4,5,
4,5,4,5,
3,6,3,6,
3,6,3,6,
{16}2,7,2,7,
2,7,2,7,
1,8,1,8,
1,8,1,8,
{16}3,7,3,7,
3,7,3,7,
4,6,4,6,
4,6,4,6,
{16}3,5,3,5,
3,5,3,5,
2,6,2,6,
2,6,2,6,
{16}1,5,1,5,
1,5,1,5,
8,4,8,4,
8,4,8,4,
{16}1,5,2,6,
3,7,4,8,
{32}5,6,7,8,1,2,3,4,
5,6,7,8,1,2,3,4,
{16}5b/6h[16:2],,8,,
4/3h[16:2],,1,,
5/6h[16:2],,8,,
4/3h[16:2],,1,,
{16}6h[16:2]/5-3[16:2],,8-6[16:2],,
5qq1[16:4],,8,,
5,,,,
8,,7,,
{16}2/6-4[16:2],,,,
3V51[16:3],,2,,
5/3,,,,
7,,1,,
{16}6<1[16:2],,1>4[16:2],,
3,,5,,
5-8[8:1]*-2[8:1],,,,
5b,,,,
{16}4b/3h[16:2],,1,,
5/6h[16:2],,8,,
4/3h[16:2],,1,,
5/6h[16:2],,8,,
{16}3h[16:2]/4-6[16:2],,1-3[16:2],,
4pp8[16:4],,1,,
4,,,,
1,,2,,
{16}8/3q5[16:4],,,,
6,,7,,
8-4[16:2],,,,
2-5[16:2],,1,,
{16}6-1[16:2],,7,,
4-8[16:2],,3,,
4w8[16:2],,,,
4b,,,,
{16}4/6h[16:2],,8,,
5/3h[16:2],,1,,
4/6h[16:2],,8,,
5/3h[16:2],,1,,
{16}6h[16:2]/4>1[16:2],,8<5[16:2],,
4-8[16:2],,8V25[16:3],,
4,,,,
6,,7,,
{16}4/8-2[16:2],,,,
3V15[16:3],,4,,
1/3,,,,
7,,5,,
{16}8<5[16:2],,5>2[16:2],,
3,,1,,
1-6[8:1]*-4[8:1],,,,
1b,,,,
{16}5/3h[16:2],,1,,
4/6h[16:2],,8,,
5/3h[16:2],,1,,
4/6h[16:2],,8,,
{16}3h[16:2]/5<8[16:2],,1>4[16:2],,
5-1[16:2],,1V74[16:3],,
5,,,,
3,,2,,
{16}1V38[16:3],,,,
7,,6,,
5V74[16:3],,,,
1-3[16:2],,1-7[16:2],,
{16}1-4[16:2],,1-6[16:2],,
1-5[16:2],,1,,
1w5[16:2],,,,
1b,,,,
