&title=あの場所へ
&artist=真田甘楽(CV:M·A·O)
&first=-0.04
&des=魔女が自分のこいにっきに
&lv_5=13+
&inote_5=(132)
{8},,2,,2/Ch[2:3],,2,2,,2,,2,,2,3bx,2,1b,,
3-1-5[4:1],3,8bx,,6-8-2[4:1],6,4x,,3-1-6[4:1],3,6x-8-3[4:1],,3-5-1[4:1],,7x,,
6-8-4[4:1],6,1x,,3-1-7[4:1],3,5x,,6-8-3[4:1],6,3x-1-6[4:1]b,,6-8-4[4:1],,2x,2x,
3-1-5[4:1],3,8bx,7,6-8-2[4:1],6,4,3,3-1-6[4:1],3,6-8-3[4:1],,3-5-1[4:1],,7,,
7b-5-1[4:1],7,4,3,2-4-6[4:1],2,8,7,8b-4[8:1]b,8,1-5[8:1]b,1,7>6[4:1],7,Cf,,
1h[4:1],,C,8h[4:1],,C,1,2,3h[8:3]/7h[8:7],,,,,Cf,,,
4xv7<1[4:3],,1,,1,,1,,8xv6<4[4:3],,5,,5,,5,,
{32}
B1,1xh[32:31],,,,,,,6,,,,,,,,6,,,,,,,,6,,,,,,,,
B8,8xh[32:31],,,,,,,3,,,,,,,,3,,,,,,,,3,,,,,,,,
3,2xh[32:31],,,,,,,B1,,,,,,,,C,,,,,,,,B5,,,,,,,,
6,7xh[32:31],,,,,,,B8,,,,,,,,C,,,,,,,,B4,,,,,,,,
2,1xh[32:31],,,B2,,,,B3,,,,B4,,,,B5,,,,B6,,,,B7,,,,,,,,
8,7xh[32:23],,,B6,,,,B5,,,,B4,,,,B3,,,,1b,,,,1b,,,,,,,,
{8}
34,,1x/2x,,45,6,7x/8x,,65,,8x/7x,,54,3,2x/1x,,
78,,56,,81,2,34,,21,,43,,18,7,65,,
7/8^5[8:1],,5q1[8:1]/8,,4,3,2,,
2/1^4[8:1],,4p8[8:1]/1,,5,6,7,,
7/1p5[8:1],8,3[8:1]/1-4[8:1]b,2,1x/4x-7[8:1]b,,8x^5[8:1],,
8^3[8:1],8x,8x,8x,
{16}
8-4[8:1],1,8,1,8b,,,,
3bx,5,3,5,3,,3x,,2-6[8:1],,6x,,2x/6x,,,,
7bx,,7,5,7,,7,,8-4[8:1],3,8,3,8b,,,,
2xbp6[8:1],,3,,4,,4,,3-1[8:1],5,3,5,3,,,,
8xb,,8,1,8,,8,,1-5[8:1],7,1,7,1,,,,
6h[4:1]/4,,,,3,,7,,2,6,2,6,1,,7x,,
2h[4:1]/6,,,,7,,1,,7,3,7,3,8,,2x,,
7h[4:1]/3,,,,2,,8,,2,7,2,7,1,,8x,,
2h[4:1]/7,,,,7,,3,,7,2,7,2,8,,1bh[8:1],,,,1bh[8:1],,,,1bh[8:3],,,,,,Cf,,,,
{8}
2bq7[6:1],,7p1[6:1],8x,1,8x<3[4:1]b,,8/3q7[6:1],,2x,1x,8,8q5[6:1],,7,6,6-8-5[4:1],,
5-1-4[4:1],4,3,3<8[4:1]b,,8bxp4[6:1],,1,2,3,3q1[6:1]b,,7,8x,8x-4[8:1]b,,
8/5-1-5[4:1],,53,3pp6[8:3],,63,,8pp5[8:3],1,8b,,4,4,4,
{16}
6b,4,6,4,B7,B3,B8,B2,5,3,5,3,B6,B2,B7,B1,5,4,6,3,5,4,6,3,5,4,7,2,6,3,8,1,
{8}
7bp2[6:1],,2q8[6:1],1,8,1>6[4:1]b,,1/6p2[6:1],,7,8,1,1p4[6:1],,2,3,3-1-4[4:1],,
4-8-5[4:1],5,6,6>1[4:1]b,,1bxq5[6:1],,8,7,6,6p8[6:1]b,,2,1x,1x-5[8:1]b,,
1/4-8-4[4:1]b,,46,6qq3[8:3],,36,,1qq4[8:3]b,8,1b,,5,5,5,3/C,1x,7/C,1x,2/C,8x,6/C,8x,
{16}
1,7,1,7,3,5,3,5,4,6,2,8,3,5>5-3-6-2-7-1b[16:27],1,7,1xbh[4:7],,,,,,,,,,,,,,,,,,,,,,,,,,,,A1f,,,,
{8}
2b-6[8:1],3,2x/5x,7b-3[8:1],8,7x/4x,1b-5[8:1],2,1x/4x,6b-2[8:1],7,6x/3x,4b-8[8:1],,4b>4[2:1],,A4f,,,,A4,
2bs6b[4:1],2b,2b,
