&title=七つの鍵盤のためのソナタ
&artist=Akito
&first=0
&des=おにねこ
&lv_5=14
&inote_5=(148)
{1},,
{8}
7h[8:4],,,,4,{24}6,5,6,{8}5,4,5,{24}3,4,3,{8}4,2,2,,,,
6h[8:4],,,,1,{24}7,8,7,{8}8,2,1,{24},,,{8},8,{16}6,3,6,4,6,5,6,4,
{8}
6h[8:4],,,,3,{24}2,4,2,{8}4,6,4,{24}7,5,7,{8}5,8,8,,,,
3h[8:4],,,,1,{24}2,8,2,{8}8,7,65,,34,,45,,,,,,,,,,,,
{16}
6h[8:1],,3,4,3,6,5,6,45,,5/4h[16:3],,,6h[16:3],,,3h[8:2],,,,5,3,4,2,3h[8:2],,,,2,4,3,5,
4h[8:1],,7,5,8,6,1,,3h[8:1],,1h[8:1],,2,8,1,7,
8,6,5,6,1,6,5,6,74,,12,,83,,,,
3h[8:1]/4,,6,4,5,2,4,3,45,,4/5h[16:3],,,3h[16:3],,,7h[8:2],,,,4,7,5,8,6h[8:2],,,,7,4,6,3,
5h[8:1],,2,4,1,3,8,,6h[8:1],,1h[8:1],,7,2,8,3,1b,4,4,4,7b,4,4,4,1b,,,,,,,,
43,,6,5,4,,7h[8:3],,3h[8:3],,,,,,6,,4/5h[16:4],,,1,2h[16:4],,,6,7h[24:3],,
{24}3,6,4,{16}5,,3,,5/4h[16:4],,,8,7h[16:4],,,3,2h[24:3],,
{24}6,3,5,{16}4,,7,,8/1h[16:3],,,6,6h[16:3]/5,,,3,34,,,,,,,,
5h[8:2],,,,8,1,27,3,4/7,,,,,,45,,3h[8:2],,,,1,8,7/1,6,5h[8:4]/1,,,,,,,,
2h[8:1],,4,3,5,4,6,5,5,7,4,6,3,5,2,4,1h[8:2],,,,
4,3,2,1,83,2,1,8,1,8,7,6,
1,8,4,8,7,8,4,8,
2,7,4,7,6,7,4,7,
3,6,4,6,5/6h[16:3],,,1,7/1h[16:3],,,4,2/4h[16:4],,,,5b,,,,,,,,
4,,{24}6,5,6,{8}7,5,4,{24}3,4,3,{8}2,4,6/5h[8:4],,,,7h[8:4],,,,
4,{24}3,4,3,{8}2,4,{32}5h[8:1]/6,,,,1,8,7,6,3,,,,8,7,6,5,2,,,,7,6,5,4,1b,,,,,,,,
{4}5h[4:13],,,,,,,,1h[4:7],,,,,,4h[4:2],,
{8}8,6,1,7,2,8,3h[8:2],1,7h[8:2],6,8,7,1,8,2,1,
6h[8:2],7,1,8,2,1,3,2,6h[8:2],7,1,8,2,1,3,2,
4h[8:3]/5,6,8,7,5,6,2,1,3h[8:3],7,1,8,5,6,2,1,
3h[8:3]/4,5,7,6,4,5,2,1,3h[8:3],6,8,7,4,5,2,1,
{16}8h[8:3]/3,,,,,,5,5,5,,3,,24,,35,,46,,,,,,
45,45,45,,6,,75,,,81,{8}81,,,,,,,,,,,,,{64},,,,,,,,,,
{12}2h[12:1],6h[12:1],3h[12:1],5h[12:3],,,
{16}4,5,6,5,4h[64:15],,,{64},,,{16}5,4,3,4,
5,2,1,2,4,3,4,2,4,5,4,5,6,4,8,2,6h[8:2],,,,1,2,3,4,5h[8:2]/2,,,,8,7,6,5,4h[24:6]/7,,,,
{24}1,2,3,5,6,7h[24:4],{16}1h[8:1],,,,3b/5b,,,,
{64}5/4,,,,,,,{16}6,3,3/4,,2,6,5/6,,{24}1,2,3,{16}14,,8/3,,7/2h[24:6],,{24}8,7,6,5b,,,
1,28,37,{16}6b/4b,,82,,34,,1/7,,65,,2,2,34,,7,7,65,,{24}8,7,6,{8}54,43,52,{16}3,3,24,,6,6,7b/5,4,3/6b,2,1/5b,8,7/4b,6,5/7,,
,,,,,,43,,{24}8,7,6,{16}5,,1h[8:1],,7h[24:6],,{24}1,2,3,4,,,
8,71,62,{16}3b/5b,,17,,65,,3h[8:2]/4,,7,6,5,,16,27,3/8h[8:1],,4,,{24}74,63,52,{8}41,8,{32}7h[8:1]/1,,,,2,3,4,5,7,,,,1,2,3,4,6,7,8,1,2,3,4,5,8b,,,,,,,,
{8}7h[8:4],,,,4h[24:4],{24}6,5,3,{8}2,4,3,{24}5,4,6,{8}5,8,81,,,,
3h[8:4],,,,8h[24:4],{24}2,1,7,{8}6,8,6,{24},,,{8},1,{16}3,6,3,5,3,4,3,5,
{8}
3h[8:4],,,,5h[24:4],{24}3,4,6,{8}7,5,6,{24}4,5,3,{8}4,1,18,,,,
6h[8:4],,,,1h[24:4],{24}7,8,2,{8}3,1,34,,65,,5h[4:9]/4h[4:9],,,,,,,,,,,,,,,,,,,,
