&title=おしゃべりな花を添えて
&artist=桃寝ちのい/海茶
&first=0
&des=Num_
&lv_5=13
&des_5=Num_
&inote_5=
(142){4},{8},,,,,,4,
{16}6,5,,5,{8}6,{4}7<4[8:1],7,
{8}2,{16}5,3,,3,{8}5,,4,3,2,
6,{16}4,5,,5,{8}4,{4}3>8[8:1],3,
{8}8,{16}1,7,,7,{8}1,,2,3/6,4,
4/6,{16}6,4,,5,{8}7,,4/6,3,2,
4/6,{16}6,4,,5,{8}6-1[8:1],,4,3,2,
1/8,{16}2,1,,1,{8}2,,4/2,5/3,6/4,
7/3,{16}2,8,,8,{8}1,{2}2b/8h[8:3],
{8}5/2,4,3,2h[4:1]/7-4[8:1],,,,5h[4:1]/3-8[8:1],
,,6,5,{2}4h[4:1]/6-2[8:1],
{8}1/3,7,6,5h[4:1]/1-5[8:1],,,,4h[4:1]/8-5[8:1],
,,{4}2-6[4:1],{2}2h[4:1],
{8}4/7,5,6,7h[4:1]/2-5[8:1],,,,4h[4:1]/6-1[8:1],
,,3,4,{2}5h[4:1]/3-7[8:1],
8h[4:1]/6<1[8:1],{8}3,4,5-1[4:1],4,
5h[2:1],{16},,,,,,,,4,5,{8}4,3,
6/2>5[8:1],5>2[8:1],,,,8h[4:1]/1>4[8:1],,,,7/1,
2,3,4h[8:1],6,5,{16}4,6,
{8}7/3,4<7[8:1],5,1>4[8:1],,8-4[8:1],,4-8[8:1],
,,{4}1-5[4:1],{2}1h[4:1],
{8}7<4[8:1],4<7[8:1],,,,4h[4:1]/5-8[8:1],,,,1/7,
6/2,5/3,{2}4h[4:1]/8h[4:1],
2/6-2[8:1],{8}8<5[8:1],1,{4}2-6[4:1],
{2}2h[4:1],8b,
{8}4,5-2[8:1],4,6-1[8:1],,2,{4}2,
{8}8,2-6[4:1],{4}6,{8},,,,5,
4-7[8:1],5,3-8[8:1],,7,{4}7,
{16}1/7,,,6/4,,,{8}7/3,{2}5/1h[4:1],
{8}6,5<8[8:1],4,3h[4:1],,1,8,7,
8/4,2/6-3[8:1],5/3,6/2b,,,6/4>1[8:1],7,
6h[4:1],,,3<6[16:3],5<8[16:3],3,,,{4}6-2[8:1],
1-5[8:1],{8},,6-1[8:1],6,
4,,,5,{4}5-2[8:1],{8}6,6<1[8:1],
,4,5>2[8:1],2<7[8:1],5,{16},,,,6,4,
{8}5h[8:3],,,2,{4}2-6[8:1],{8}4,4-8[8:1],
,3,2-7[8:1],7-4[8:1],{4}6,5<8[8:1],
{8}4h[8:3],,,5,5,6<1[8:1],6,2>5[8:1],
,2,1-5[8:1],8,{4}7-4[8:1],{8}1-4[8:1],2,
{4}1<6[8:1],3-6[8:1],{8}7h[4:1],{16},,,,4,5,
4,,,6/4,,,{8}7/2,{4}5/4,{8}1-5[8:1],2,
6h[4:1],,,3,{4}4>1[8:1],{8}7,8-4[8:1],
,7,7>2[8:1],2>5[8:1],{16},,,,,,6,4,
{8}5h[8:3],,,4,{4}3>8[8:1],{8}6,7<4[8:1],
,3,1-5[8:1],8,{4}7,3-8[8:1],
{8}4h[4:1],,,8,7,6-1[8:1],5,4-8[8:1],
,5,6-2[8:1],7,{4}8-5[8:1],8-3[8:1],
6<1[8:1],4>1[8:1],{8}6h[4:1],{16},,,,3,5,
4,,,7/1,,,{8}5/4,{4}8/3-8[8:1],{8}5-1[8:1],6,
,,,2,{4}1-6[8:1],{8}2,3-8[8:1],
,4,5-2[8:1],2<7[8:1],{16},,,,,,6,4,
{8}5h[8:3],,,1,2>5[8:1],,,6b,
,5,4-7[8:1],3,{4}2,4-8[4:1],
{2}4h[8:3],{8}8b,7,6,2-5[8:1],
,1,8-4[8:1],7,{4}6,{8}4-8[8:1],3,
{4}5-1[8:1],6-2[8:1],{8}7h[4:1],{16},,,,8,7,
8,,,4/6,,,{8}7/1,{4}3-7[8:1]/5-8[8:1],5-2[8:1],
{8}7h[4:3],{16},,,,,,,,,,,,1,7,
1b,,,5b/2,,,{8}4b/7,6b/5,{16}1,8,{32}1-5[8:1],2,{16}3,{32}5,6,7,8,
{16}1,,,,,5,{8}4,{4}4h[4:1],{8}5,6,
8,{16}8,7,,7,{8}8,,7/5,4/2,8/1,
1,{16}8,2,,2,{8}8,{4}6h[4:1],{8}4,3,
2,{16}5,3,,3,{8}5,,2,2>5[8:1],5<8[8:1],
8-4[8:1],,,,,7,7<4[8:1],4>1[8:1],
1-5[8:1],,,,,6,6<1[8:1],1>4[8:1],
4-8[8:1],,,,,3,3>8[8:1],8<5[8:1],
{2}5-1[8:1],8b,
E
