&title=world.execute(me);
&artist=Mili
&first=0.11
&des=Aza
&lv_5=13+
&inote_5=(130)
{1},{4}3h[8:1],3h[8:1]/4h[8:1],3h[8:1]/5h[8:1],3h[8:1]/6h[8:1],{8}7h[8:1],8h[8:1],5h[8:1],4h[8:1],7pp8[8:1],8-5[8:1],{4},3h[8:1],3h[8:1]/4h[8:1],3h[8:1]/5h[8:1],3h[8:1]/6h[8:1],{8}2h[8:1],1h[8:1],4h[8:1],5h[8:1],2<7[8:1],7<4[8:1],{4},8h[8:1],8h[8:1]/1h[8:1],8h[8:1]/2h[8:1],8h[8:1]/3h[8:1],{8}7h[8:1],5h[8:1],1h[8:1],3h[8:1],7V58[4:1],5,{4},1h[8:1],1h[8:1]/8h[8:1],1h[8:1]/7h[8:1],1h[8:1]/6h[8:1],{8}2h[8:1],4h[8:1],8h[8:1],6-2[8:1],2-6[8:1],4h[8:1],{4},
1b/4-8[8:1],{8}5,6,1/7-3[8:1],,6,5,2/4,1-5[8:1],5-2-6[4:1],1,6>8[4:1],7,8,,7-3[8:1],,6,5,2/4-8[8:1],,5,6,1/7<5[8:1],2/8,{16}1,2,3,,{8}2>4[8:1]/8,1/7,{16}8,7,6,l,{8}5-1[8:1],,4,3,2-6[8:1]/8,,3,4,5/7,8-4[8:1],4-7-3[4:1],8,3<1[4:1],2,1,,2h[8:1],{16}3,2,1h[8:1],,2,1,8h[8:1],,1,8,7h[8:1],,8,7,{8}6hx[8:1],5h[8:1],4h[8:1],3h[8:1],2-6[8:1],8-4[8:1],2,8,
1,2,3/1,8,Ch[4:1]/7-3[8:1],,,,8,1,2/8,7V13[4:1]*V53[4:1],{2}6/8,{8}1/2,3,4/5<4[4:1],3,2h[8:3],,,,5,3/6,7,1<5[8:1]/8>4[8:1],{2}2,{8}7/8,6,4/5,6<8-4>2[8:3],3,,,,1,1h[8:1],7,7h[8:1],5,5h[8:1],B8/A8,A4/B4,4/5,3/6,2/7-3^2-6^7[2:1],1,{2}8,{8}8,1,2/4^5-1^8[4:1],3,,,7b,,
5/6z2[4:1],,2z6[4:1],,6>6[2:1],,,,4,3h[8:1],,,2-4[8:1]/5-1[8:1],2/5,,,8h[4:1],,Ch[4:1],,4-8[8:1],4,,,5z1[8:1]/6s2[8:1],5/6,,,4s8[8:1]/3z7[8:1],4/3,,,{4}1>5[4:1],5<1[4:1],1V36[4:1],,{8}7v8[8:1],8<5[8:1],,,3v4[8:1],4>1[8:1],,,{4}8xpp4[4:1],4xpp8[4:1],{8}3,3h[8:3],,,1v4[8:1]*v6[8:1],2/8,,,8,3/5,{4}8b>3[8:1],
{8}6/8-5[8:1],,8>3[8:1]/4,4,6/8-5[8:1],,8/4,4,3/4,4,2/4,4,1s5b[8:1]/4,8,1<6[8:1],,1-4[8:1]/3,,1<6[8:1]/5,5,1-4[8:1]/3,,1/5,5,5/6,5,5/7,5,8V62-4b[4:1],1,2,,1<6[8:1],,1/5-2[8:1],5,1<6[8:1]/5,1,1/5-8[8:1],5,1/5,1,1/2,1,1>5b[8:1]/3v1b[8:1],1/3,{4},{8}8>3[8:1],,8/4-7[8:1],4,4/8>3[8:1],,4-1[8:1]/8,4,4-7[8:1]/5,,3/4,,1s5b[8:1],2,3,,
{16}6,5,{8}7,4/8>3[8:1],8,8<5[8:1],8,8,8,{16}3,4,{8}2,1<6[8:1]/5,1,1>4[8:1],1,1,1,{16}7,8,{8}6,1/5>2[8:1],5,5-8[8:1],5,5,5,{16}2,1,{8}3,8/4<7[8:1],4,4-1[8:1],4,4,4,{8}8<5[8:1],8,4,{16}2,4,{8}1>4[8:1],1,5,{16}7,5,{8}8v1[8:1],8,1,{16}2,4,{8}3<6[8:1],3,6,{16}8,1,{8}7>2[8:1],7,2,{16}3,5,{8}4>2[8:1],4,1-5[8:1],8-4[8:1],1>4[8:1],8<5[8:1]
,1-6[8:1],8-3[8:1],1-4[8:1],8-5[8:1],1,8,
2-4[8:1],4-1[8:1],2,6,7-5[8:1],5-8[8:1],7,3,2-5[8:1],5-1[8:1],2,6,7-4[8:1],4-8[8:1],7,3,1-5[8:1],5-2[8:1],1,7,8-4[8:1],4-7[8:1],8,2,1-6[8:1],6-2[8:1],1,7x,8-3[8:1],3-7[8:1],8,2x,8-2[8:1],2-5[8:1]/6,4,6,1-7[8:1],3/7-4[8:1],5,3,8v2[8:1],2-5b[8:1]/6,4,6,1v7[8:1],3/7-4b[8:1],5,3,{4}8hb[1:1],E7/B6,E5/B4/E4,E2/B1/B2/E3,{8}1,2/8,3,4/7,6v8b[8:1],8<4b[8:1],2-5[8:1],3,
2b<7[8:1],,2-5[8:1]/4,6,2<7[8:1]/8,,2-5[8:1]/4,6,2/8,7,6-2[8:1],1<6[8:1],6>3[8:1],1,,8,7b>2[8:1]/1,,7-4[8:1]/5,3,7>2[8:1]/1,,7-4[8:1]/5,3,7/1,2,8-4[8:1],3>8[8:1],8<5[8:1],3,,4,2b<7[8:1],,2-5[8:1]/4,6,2<7[8:1]/8,,2-5[8:1]/4,6,2/8,7,6-2[8:1],1<6[8:1],6>3[8:1],1,,8,7-4<5-1b[4:1],,1,2,3-8V25b[4:1],,4,5,6-8[8:1],,3-1[8:1]/6,4,6pp5[4:1]/3,5,3b/6b,,
2-4>3-1[4:1],,1v4[8:1]/2,8,7-5<6-8b[4:1],,7/8v5b[8:1],1,2,3,4/5,6,3/7,2bx/Cf,8bx/Cf,1bx/Cf,7v1^8-5[4:1],,5v6[8:1],4,3v1^2-5b[4:1],,5v4b[8:1],6,7,8,1/2,3,4/8,7bx/Cf,1bx/Cf,8bx/Cf,2v4^3-6[4:1],,6,7,8v6^7-4b[4:1],8,1,2,3-8[8:1],5-8b[8:1],3,5,1,3bx/Cf,7bx/Cf,2bx/Cf,6-1^8-4[4:1],,4<7[8:1],3,2-5^4-8b[4:1],,8>3b[8:1],7,6-2[8:1]
,,6-4v7[4:1]`2-8v3b[4:1],,{2}2`6b,
{8}2-4[8:1]/5,4-7[8:1],6,8,1-3[8:1],3-6[8:1],5,7,8-2[8:1],2-5[8:1],4,6,7-1[8:1],1-4[8:1],3,5,7-5[8:1],5-2[8:1],3,1,8-6[8:1],6-3[8:1],4,2,1-7[8:1],7-4[8:1],5,3,2-8[8:1],8-5[8:1],6,4,3-1[8:1],1-6[8:1],7,5,4-2[8:1],2-7[8:1],8,6,5-3[8:1],3-8[8:1],1,7,6-4[8:1],4-1[8:1],2,8,6-8[8:1],8-3[8:1],2,4,5-7[8:1],7-2[8:1],1,3,4-6[8:1],6-1[8:1],8,2,3>8b[8:1],8<5[8:1]*-4[8:1],3,
