&title=ghost in my place
&artist=technoplanet feat. setsat
&first=0
&des=Nakuru in my heart
&clock_count=3
&lv_5=13+
&inote_5=(116)
{1},
{16},,,,
{384},,,,,
{16}1>8[8:10]/5,,,,,,,,,,,,,,,,
{16},,,,,,,,1>8[8:10],,,,,,,,,
{16},,,,,,,,,,,,,,,5<4[8:10],
{16},1,,,,,,,,,,,,,,,
{16},,,,,,,1>8[8:9],,,,,,,,,
{16},,,5>2[8:3],,,,,,,,,,,,1>8[8:18]/8,
{16},,,,,7,,,,,,6,,,,,
{16},5,,,,,,4,,,,,,3,,,
{16},,,2,,,,,,1,,,,,,4qq8[8:8]/8,
{16},4,,,,7,,,,,,6,,,
{16},,,5,,,,,,4V68[8:6]/8,,,
{16},,,1,,
(105){16},,,,2,,,,,,3>5[85#8:6],
(98){32},,,,,,,,,8h[8:5],,,,,,,,,,,
(85){8},,,8w4[8:2],
(115){16},
(112){8},,,,
(108)
{8},,4/2h[8:1],5-3[8:1],7v5[16:3],8,,1,
2,3-5[8:1],7,6h[8:2],,2,
1h[8:1],5-3[8:1],6,7V51[8:2],,2,
2q7[8:2]*>7[8:2],,,,,1,
5/7h[8:1],4-6[8:1],2V48[16:4],1,,8,
7,6-4[8:1],2,3h[8:2],,7,
8h[8:1],4-6[8:1],3,2h[8:2],,7,
8w4[8:2]/6,,,,,{16}3,2,
1/7h[16:3],,5-1[8:1],5,,3,35,,2h[8:1],,4,,
5/3h[16:3],,6-4[8:1],6,,4,46,,2h[8:1],,1,,
8h[8:1],,7<3[16:4],,4,,3-7[16:3],,,7>6[8:3],,,2h[8:2],
,,,,,1,,3,,6,7,
8/2h[16:3],,4-8[8:1],4,,6,64,,7h[8:1],,5,,
3h[8:1],,1h[8:1],,8h[8:1],,6h[8:1],,8,,2,3,
4/6,,3-5[8:1],3,,5,53,,6,,7,,
18,2,3,4,5,6,7,6,5p8[16:4],4,3,2,1,,,,,,
3h[8:1],,2h[8:1],,1,,
7b-4[8:1]/8b,,6,5,7,,2,,2q4[8:3],,4,,
5h[8:2],,,,,,6h[8:1],,7h[8:1],,8,,
2-5[8:1]/1,,3,4,2,,7,,7qq2[8:3],,1,,
3h[8:2],,,,,,4,,3,,2,,
1/7v4[8:1],,4<7[8:1],,7>4[8:2],,1h[8:2],,,,,,
2v5[8:1],,5>2[8:1],,2V84[8:2],,8h[8:2],,,,,,
7h[8:1],,5,,64,,2,3,4qq1[8:3],5,6,7,
8h[8:2],,,,,,5h[8:1],,7h[8:1],,8,,
3bV52[8:2]/1b,,2,6,3,,8,,7p5[8:3],7,5,,
4h[8:2],,,,,,2h[8:1],,3h[8:1],,4,,
7V15[8:2]/5,,6,4,7,,2,,3pp8[8:3],3,1,,
6h[8:2],,,,,,5,,6,,7,,
8/2v5[8:1],,5>2[8:1],,2<5[8:2],,8h[8:2],,,,,,
7v4[8:1],,4<7[8:1],,7V15[8:2],,1h[8:2],,,,,,
2h[8:2],,3,,5,,64,,5/7>6[8:4],,86,,
7h[8:2],,,,,,8h[8:3],,,,,,
{8}6bqq3[8:4],,,,,,7qq1[8:4],,,,,,
3h[8:3],,,5h[8:3],,,7qq5[8:2]*pp1[8:2],,,,,,
4,4pp7[8:4],,1h[16:1],2h[16:1],3h[16:1],
4,4pp8[8:4],,1h[16:1],1h[16:1],2h[16:1],
3,3,4h[8:1],5,6,7,
8w4[8:2]/3,,,,,,
{48}1b/7b,2,3,{16}4,6-4[8:1],,,,64,,3,,3,,
2/6h[8:1],,2-6[8:1],,,,26,,7,,7,,
8/3h[8:1],,8-4[8:1],,,,84,,3,,2,,
1/7h[8:1],,1-5[8:1],,,,15,,6,,7,,
8/3h[8:1],,2,,6/4,,6,7,6,5,6,7,
8/6h[8:1],,1,,35,,6,8,6,4,6,8,
7/1h[8:1],,3,,4,,5/6h[8:1],,7,,8,,
1>7[8:3],,,,,,5,,,,,,
{48}1,2h[8:3],,,,,,,,,,,,,,,,,,{16}8w4[8:2],,,,,,,,,,,,
(216){48},,,
{384},,
{8}6h[4:1],,4h[4:1],,1,,
(108)
{32}8b/4b,,,,7v4[8:1],6,5,4,3v8[8:1],2,1,8,
7,,,,3V15[8:2],,,,7,,,,
5V36[8:2],,,,6,,,,7,,,,
8,,,,8h[8:1],,,,2,,,,
7/3,,,,1-5[8:1],2,3,4,5-1[8:1],6,7,8,
1,,,,7qq3[8:3],,,,7,,,,
4,,,,3,,,,2,,,,
1,,,,8,,,,17,,,,
2h[8:2],,,,8-4[8:1],7,6,5,4V61[8:2],3,2,1,
8,,,,2,,,,3,,,,
4h[8:2],,,,6V84[8:2],7,8,1,2,3,4,5,
6,,,,3,,,,2,,,,
{16}1/7^2[8:1],,6,,5V73[8:2],,
4,,3,,2,,
{32}1,8,7,6,5,4,3,2,1,8,7,6,
1h[8:1]/5,,,,4,,,,17,,,,
7b/3b^8[8:1],,,,7,6,5,4,3,,,,
4^7[8:1],,,,8,1,2,3,4,,,,
2h[8:2],,,,4,5,6,7,8,1,2,3,
4-8[8:1],,,,52,,,,74,,,,
7h[8:1],,,,5,,,,5h[8:1]/3,,,,
{32}2b,1,8,7,6,5,1b,8,7,6,5,4,
8bpp4[8:3]*qq7[16:3],,,,,,,,,,,,,,,,,,,,,,,,
7qq5[8:1],,,,8,,,,1,,,,
2,3,4,5,6,7,8,1,6h[8:1],,,,
2qq8[8:1],,,,1,,,,8,,,,
6,5,4,3,2,1,8,7,3,,3,,
{16}8-3[8:1]/2,,3^8[8:1],,8V64[16:3],,
4,,3,,2,,
{32}8,7,6,5,4w8[8:2],3,2,1,8,7,6,5,
{16}4,,,,,,
(106)
{16}1b/7b,6,5,4,3,2,8,7,6,3,2,1,6,5,4,2,{24}1,,8h[48:5],,{48},1,,,
(86){8},,,{64},,,,,,2h[128:23],,
(72){8},4h[8:1],5h[8:1],4h[8:1],
(88){8}6h[8:2],,
(38){8}8h[8:1],
(100){32}6,5,4v5[8:8]*p5[8:8],3,
