&title=トワイランド
&artist=三留尚子/関河千佳
&first=0.005
&des=Merlee
&lv_5=13+
&inote_5=(130)
{4},,,,
{4}1<7qq5[4:2]*>3pp5[4:2],,,,
{16}6,,,6h[16:5]/5,,,,,3,,3h[4:1]/7,,,,6,,
{16}4,,8,,B6/E7,,3,,{16}5,,1,,B2/E3,,7,,6x<1[12:1],,,,3x<6[12:1],,,,8xw4[12:1],,,,8bx,,,,
{16}3,4,1,,2h[8:1]/5,,4,3,6,,45,,3h[4:1]/7,,,,{16}6,5,8,,3/4,,2,,6/5,,7,,3h[4:1]/8,,,,
{16}6,5,8,,7h[8:1]/4,,5,6,2,,34,,5h[4:1]/1,,,,{8}3x>8[8:1],,4xp7[8:1],,5x>2[8:1],,6xh[4:1],,
{16}3,4,1,,2h[8:1]/5,,4,3,6,,45,,3h[4:1]/7,,,,{16}6,5,8,,34,,2,,8-4[12:1]/7-3[12:1],,16,,78,,,,
{16}6,5,8,,7h[8:1]/4,,5,6,2,,34,,5h[4:1]/1,,,,{8}3,24,6,75,25,34,47,65,
{16}3h[4:1]/7-4[12:1],,8,,7,,,2,6h[4:1],,1,,4h[4:1],,1,,7-4[12:1],,6,,3-7[12:1],,2,,1-6[12:1]*-4[12:1],,,,1,,,,
{16}6h[4:1]/2-5[12:1],,1,,2,,,7,74,,65,,52,,43,,E2/6,,E3,,E4/6,,E5,,7<4[12:1]/6,,,8,7,,3,,
{16}2-5[12:1]/6-1[12:1],,37,,26,,,3,6h[4:1],,1,,4h[4:1],,1,,7<4[12:1],,6,,1-5[12:1],,2,,7-4[12:1]/1>3[12:1],,,,17,,,,
{16}7-4[12:1]/3-8[12:1],,62,,73,,,2,25,,34,,47,,56,,E8/4,,E7/3,,E6/2,,E5/1,,8x-3b[12:1],4,,4,8bx,,7,,
{16}1,,5,5,3,4,2,4,,56,,3h[16:3]/7,,,6,,
{16}8,,4,4,6,5,7,5,,34,,6h[16:3]/2,,,3,,
{16}1xV35[8:1]/7,,,,4x>8[8:1],,,,2xV46[8:1],,,,5x>1[8:1],,,,3xV57[8:1],,,,6x,,,,8bw4[12:1],,,,8b,,,,
{16}1,,6,6,2,4,3,6,,47,,2h[16:3]/5,,,6,,
{16}8,,3,3,7,5,6,3,,25,,7h[16:3]/4,,,3,,
{16}8xV64[8:1]/2,,,,5x<1[8:1],,,,7xV53[8:1],,,,4x,,,,2-6[12:1],,7-3[12:1],,2x,,7x,,
{32}E1,E2,E3,E4,E5,E6,E7,E8,D1/E1f,,,,,,,,
{16}6h[8:1],,5,5,7,3,4,3,52,,3h[16:2]/4,,8,8,3,6h[8:1],,4,7,5,6,3,7,47,,25,,38,,6,2,5,
{16}3h[8:1],,4,4,2,6,5,6,47,,6h[16:2]/5,,1,1,6,3h[8:1],,5,2,4,3,6,2,52,,34,,74,,6,5q1[12:1],8,4,,2-4[12:1],,3,,6-8>1[12:1],,5,,2^5[12:1],,3,,6,,8,8,3,3,6,5,6,74,,52,,38,,3,4p8[12:1],1,5,,7-5[12:1],,6,,3-1<8[12:1],,4,,7^4[12:1],,6,,3,,2,2,5,5,4,4,7,7,{32}1,8,1,8,1,8,1,8,{32}2x,3x,4x,5x,6x,7x,8x,1x,6bpp5b[2:1]/2bpp1[2:1],,,,,,,,,,,,,,,,,,,,,,,,,,,,,,,,
{8}25,34,47,
{16}65,5,7qq1[4:1],3,4,3,,,,,
{16}3,3,8,,2h[8:1],,7,4,6V48[6:1],5,7,5,6,,,,
{16}2,2,1,,47,,25,,3-8[12:1]/7-4[12:1],,26,,37,,,,
{16}6,6,1,,7h[8:1],,2,5,3V51[6:1],4,2,4,3,,,,
{8}7x>2[8:1],,3xp6[8:1],,5x<1[8:1],,3x,,
{16}3,4,2,,1h[8:1]/6,,5>2[12:1],3,8-4[12:1],,56,,8,,,,
{16}3,6,2,,1>4[12:1]/5<8[12:1],,37,,1x-6[12:1]/5x-2[12:1],,,,1x/5x,,,,
{16}6,5,7,,8h[8:1]/3,,4<7[12:1],6,1-5[12:1],,43,,1,,,,
{8}75,24,86,13,74,52,83,61,
{8}7-4[12:1],8,2>5[12:1],1,6<1[12:1],7,3v8[12:1],2,7-4[12:1],6,3V57[20:4]*<8[4:1],2,,,,B2/B3,
{8}7^4[12:1],8,2v5[12:1],1,6-1[12:1],7,3,2,{16}E5/3h[8:1],,E6,,E7/3h[8:1],,E8,,7x^2[12:1]/3x^6[12:1],,,,3x/7x,,,,
{8}8-5[8:1],3,4v7[8:1],1,8<7-5[8:1],3,4p7[8:1],1,8V64[8:1],3,5v2>4[4:1]*v8<6[4:1],1,,,,B7/B8,
{8}1-4[8:1],6,5v2[8:1],8,1>2-4[8:1],6,5,8,{16}E5/1h[16:1],,E6/2h[16:1],,E7/3h[16:1],,E8/4h[16:1],,3x-8b[12:1]/7x-4b[12:1],,,,3bx/7bx/C,,,,
{16}1,,5,5,3,4,2,4,1/5h[16:2],,2,,7h[16:2]/3,,4,,
{16}8,,4,4,6,5,7,5,8/4h[16:2],,7,,2h[16:2]/6<1[12:1],,5,,
{16}3-7[12:1],,2,,5<8[12:1],,4,,2-6[12:1],,1,,4<7[12:1],,3,,1-5[12:1],,2,,6,,7,,8bw4[12:1],,,,8b,,,,
{16}1x,,5,5,3,4,2,6,5h[16:2]/1,,2,,7h[16:2]/3,,4,,
{16}8,,4,4,6,5,7,3,4h[16:2]/8,,7,,6h[16:2]/2>5[12:1],,3,,
{16}7-3[12:1],,6,,1>4[12:1],,8,,6-2[12:1],,5,,8,,1h[8:1],,7-3b[12:1],,2-6b[12:1],,7x,,2x,,{32}E1,E8,E7,E6,E5,E4,E3,E2,D1/E1f,,,,,,,,
{16}2h[8:1],,4,3,6,6,2,8,48,,6h[16:2]/5,,1,5,3,7h[8:1],,2,6,4,7,3,5,61,,34,,38,,6,5,5,
{16}7h[8:1],,5,6,3,3,7,1,51,,3h[16:2]/4,,8,4,6,2h[8:1],,7,3,5,2,6,4,38,,65,,16,,3,4,2,
{16}8-4[12:1],,7,7,1-5[12:1],,2,,7-4-6[8:1],,8,,7/3,,2,,3,7,4,4,6,5,6,74,,2/5,,38,,6,5,7,1-5[12:1],,2,2,8-4[12:1],,7,,2-5-3[8:1],,1,,26,,7,,6,2,4,4,3,7,5,6,{32}1,5,1,5,1,5,1,5,{32}2x,3x,4x,5x,6x,7x,8x,1x,6bqq5-7b[2:1]/2bqq1-3[2:1],,,,,,,,,,,,,,,,,,,,,,,,,,,,,,,,{8}25,34,47,
{16}65,5,7-3[12:1],2,4,1,1xw5b[12:1]/7
,,,,1b/Cf,,,,
