&title=我ら!ゴミ分別団
&artist=かてらざわ
&first=-0.24
&des= fuwan
&lv_5=13
&inote_5=(166){4},{8}4,5,{4}4h[4:1],B6/E6/B5,
7h[4:1],{8}5,6,3,4,5h[4:1],4,
{4}B3/E3/B2,{8}6,5,{4}7-3[8:1],4/7,
{8}2,4,3,5,{4}4/6,5/7<4[8:1],
C,{8}3,3,{4}6/4,5,
4/2,{8}3,4,{4}7/5,{8}6,5,
{4}4/3,5,4/5,4/3h[4:1],
5h[4:1],2pp7[2:1],2/8,8,
{2}8x-4[8:1],{8}3,5,{4}1,
{16}2,4,2,4,{4}2pp5[8:3],5/2,6,
{16}7,5,7,5,{4}7,6h[8:1]/5h[8:1],4h[8:1]/3h[8:1],
2h[8:1]/1h[8:1],8h[8:1]/7h[8:1],8pp3[2:1]/7p4[2:1],8/7,
{8},,,,5,2,{4}5,
{16}3,4,3,4,{4}3>1[8:1],3/4,6<1[8:1],
{8}5/6,4,{4}3h[4:1],8h[4:1],2h[4:1],
{8}4,5,{4}1-5[8:1]/6-8[8:1],1b/6b,4,
{2}4q8q4[4:1],{24}D5,A5,D6,A6,,,B5,B6,E7,A7,{48},,,,{16}B3/B2/E3,
,,B6/B5,,,{8}C,,E8/B7/B8,{4}A2/D2/A1,
{16}B3/B4/E4,,,B6/B7/E7,,,{8}C,{4}2h[8:5],{8}4,4,
4,4<7[8:1],,3,2,1,8,7,
4>1[8:1],5,6,7,{24}B1,B2,B3,E4,,,A5,D6,A6,D7,{48},,,,{16}B2/B3/E3,
,,B6/B7,,,{8}C,,E5,{4}E6,
{16}E8,,,E1,,,{8}B4/B3/E4,{4}6h[4:1],{8}5,6,
{16}4h[16:3],,,5h[16:3],,,{8}3,{2}2<8-6>4-2[16:5],
{4},3/6<1[8:1],6b/2-5[8:1],6/2b,
7-4[8:1],{8}7/4,3,2-5[8:1],8-4[8:1],2,8,
{4}3>8[8:1],{8}6/3,5,{4}4bv7[8:1],4/2,
{8}3,4,5v2[8:1],6,5b/7,6,{4}5-7[8:1]*-3[8:1],
5bx,{8}2,3,{4}8-6[8:1]/4>1[8:1],8b/4b,
{8}5,2,4,3,4-7[8:1],3-8[8:1],4,3,
{4}6hx[4:1],{8}5,4,{4}3/6,2/7,
{8}8,1,{4}7h[4:1],1w5[8:1],1,
{2}7>1-5-3[4:1],{8}2,1,{4}1,
{16}2,4,2,4,{4}2pp6[0.3614##0.5422],2x/4x,{8}8-4[0.3614##0.1807],,
4x/8x,3,{4}2,{8}6h[8:1],4,4h[8:1],7,
{4}8h[4:1],{8}E2,E4,E5,E6,E8,E1,
{4}E2/C,{8}4h[4:1],3,2h[4:1],4,{4}5,
{16}4,6,4,6,{4}4>1[8:1],4/8<5[8:1],8/3-7[8:1],
3/4,{8}5,6h[8:1],8-3[8:1],7-5[8:1],8,7,
2,3,4,5,{4}4/6,7-2[8:1]/6-3[8:1],
7x/6x,{8}5,3,{4}4pp4[16:3],3qq3[16:3],
{16}3x,,,5pp5[16:3],,,{8}4qq4[16:3],,4x,{4}6qq7qq6b[8:3],
{16}2,,,2,,,{8}2h[8:3],{4}7x,6,
{8}5,4v1>4[4:1],,4,5,5,6,6,
{2}4h[4:1]/7-5v4-2[4:1],{4}B1/A1/E1,E7/B7/B6,
{16}5v2-4[16:3],,,4-6-8[16:3],,,,,,,{8}B1/E2/E1,{4}E4/B4/E5,
{16}5hx[8:3],,,4,,,{8}2,4/3,4/3,5/6,5/6,
{2}7pp5-7v4[2:1],{8}3,3,2,2,
{16}5,3,5,3,{4}5q1[8:1],4/5b-2[8:1],5b/8x-5[8:1]*-3[8:1],
8bx,{8}2,4,5-7[8:1],4-8[8:1],5,4,
{4}7h[4:1],{8}8-2-4[16:3],7,{4}8-6-4[16:3],8,
{8}1-5[8:1],7-4[8:1],1,7,2-5[8:1],6-1[8:1],2,6,
{4}4qq5b[4:1],{8}5,6-8[8:1],,,{4}3,
{8}4/5,4,2/6,6,7/1p4[8:1],8<5[8:1],1bx,8bx,
{4}3h[4:1],{8}8-5[8:1],5-2[8:1],,,1,1,
2/4,3,4/5,6,{2}7/5bw1b[8:1],
{16}A3,A4,A5,A6,A7,A8,A1,A2,{8}5,3,{4}4,
{16}5,5,4,4,6,6,3,3,7,4,7,4,{8}7,3/4,
{16}2,5,2,5,{4}2pp5[8:3],{8}5,6,7,8h[4:1],
,4,3p7[8:1],4,3/5,4,5-1[8:1],4,
{2}5x/3h[4:1],{8}8p4[8:1],1,{4}2/8,
{8}3/4,5/2,{16}6,4,6,4,{4}6v3[4:1],3<6[4:1],
{8}2,1,{4}8,{8}8-4[8:1],7-5[8:1],8,7,
3,3,2/4,2,{4}1/B5/B4/E5,E1/B8/B1,
7-2[8:1]/6-3[8:1],7/6,5hx[8:7]/B7,E1,
{16}B2/E3,,,B6/E7/B7,,,{8}A2/D3/A3,,5,{4}3,
{16}4,,,Cfh[16:3],,,,,{4}5,{8}6,6,
{16}4,,,3,,,{8}2-8-4-2[8:3],,5,5,6,
6,5,{4}4,7-5[8:1]/8-4[8:1],A7f/A8f/D8,
{16},,,B4/B3/E4f,,,{8}E8f/B7/B8,,5/4,{4}3/6,
{16}B7f,,,Cf,,,{8}B3f,{4}5h[4:1],{8}4,4,
{16}3h[2:1],,,5,,,{8}7,6,4,5,3,
{4}4/2<6[4:1],6>2[4:1],2-8b-6b[4:1],6-4b-2b[4:1],
2b-8-4b[4:1],{8}5,5,7,5,6,4,
{4}5/3,{8}3,5,{4}4/6<1[8:1],4,
2>5[8:1],{8}2/5,6,7/8,1,2,3,
{4}5/4,{8}6,4,{4}5/4,3,
{8}2-6[8:1]*-5[8:1],8,{4}2x,7,{8}4,5,
{4}3h[4:1],{8}4,3,5q1[8:1]b,bbbb2,5,3,
2q6[8:1],4,2,8,{4}7-5[8:1],7bx/8-4[8:1],
8bx/1-3b[8:1],{8}1b/5V71[8:1],6,{4}4/5-3[8:1],{8}5b,6,
5/2,4,3/5,2,1-3[8:1],5,7/1<6[8:1],8,
{4}5/1bx,{8}4-1[8:1],6,{4}4-7[8:1],{8}3x/4-2[8:1],3x,
4-6[8:1],6,4,3,7h[8:1],3,{4}3h[8:3],
{24}E2,E1,E8,E7,,,{8}5,4,5/6,4,2/3,1,
8z4[4:1],4,3,2,1b-4[8:1],5b-8b-6b[4:1],1,5,
{16},,,,3,5,3,5,2,4,2,4,{4}2pp5[8:3],
{8}2x/5x,6,7,8,{2}4h[4:3]/8h[4:3],
{8},,{32},3bx/7bx,2bx/6bx,1bx/5bx,
{4}4bx/8bx,,{8},
{4}C,
E2,E3,E4,
E5,E6/C,E7/C,E8/C,
E1/C,E2/B2/A2,B4/E5/A4,E8/B7/A7,
{1}Ch[1:3],
E
