&title=やっぱり雨は降るんだね
&artist=ツユ
&first=0.15
&des=Rr19
&des_5=
&lv_5=13+
&inote_5=(130){4},,,,,,6h[8:1],
6h[8:1],
5/6h[8:1],4/6h[8:1],4/3h[8:1],5/3h[8:1],
{8}4/2,C,7/5,C,{4}3h[8:1],4/2h[8:1],
5/6h[8:1],7/5h[8:1],6h[8:1],{8}4/5,{16}6,3,
5,4,{8}6,{4}5/4-8[8:1],4/3h[8:1],4/6h[8:1],
3h[8:1]/1p7[4:1],1/5h[8:1],{8}6h[8:1],{16}4,5,{8}2h[8:1],{16}4,3,
{8}7h[8:1],{16}5,6,{8}4,3,2xv4>3[16:3],4,2,5,
7x<6v8[16:3],5,{16}7,3,{8}5,{2}1bx<7-3v5>4[8:5]*>3-7v5>4[8:5],
{4},,2/3-5[8:1],2/3,
4/5-7[8:1],{8}5/4,{16}4,3,{4}2/1-7[8:1],{16}2/1,3,4,5,
{4}7-3[8:1]/6-3[8:1],6/7,6/7-1[8:1],6/7,
8/1-3[8:1],{8}1/8,{16}8,7,{4}6/5-3[8:1],{16}6/5,7,8,1,
{8}2-6[8:1]/3-5[8:1],1/8,{4}2/3,{8}8/7<5[8:1],5,4/7,3,
5/2>4[8:1],6,7/2,{16}8,2,7,5,6,4,2,5,3,4,
6,3,5,4,{8}6,5/3,{4}4/5<8[8:1],5/4,
{8}1>4[8:1]/8<5[8:1],2/7,{4}1/8,5/2h[2:3],C,
6,C,7,C,
{8}8,C,6,C,{4}1bv3[8:1],{8}5/1,{16}6,4,
{8}5-7[8:1],4,{4}5/1-7[8:1],{8}1/5-1[8:1],6,{4}3>6[4:1],
3,4-8[8:1],4/3,2/3-6[8:1],
3/2,2/1-5[8:1],{8}1/8-4[8:1],7,8/2,1,
{16}2,7,3,6,{8}4x/5x-1[8:1],6,7/5,7,2x/7x,7,
6/4,6,1x/6x,6,5/3,5,8x/5x,5,
5/4,3,1x/2x,8,7/3,5w1[4:1],,5,
,,4-2[8:1],5-7[8:1],4-1[8:1],5-8[8:1],4-8[8:1],5-1[8:1],
4>1[8:1],5<8[8:1],4,5,{4}1b>5[8:1],{16}1/7,,,8,
{8}7<4[8:1],5,7/3>8[8:1],2,3/6,5<5[4:1],1,5,
,,4/5,{16}7,4,2,6,4,5,7,3,6,4,
{8}2-4[8:1],6-4[8:1],2-8[8:1],6-8[8:1],2>2[4:1],6,2,C,
,5/4,{16}3,6,{8}4,{4}7/1>4[8:1],1/8,
3/5<8[8:1],5/4,{8}3-8[8:1],2,{4}3/6-1[8:1],
{8}4/6,5,8<5[8:1]/1>4[8:1],7/2,{4}8/1,{8}5-8[8:1],3,
5/4,{16}3,5,6,4,5,3,{4}4h[4:1],{8}C,2,
5/4,{16}7,4,6,2,5,4,{4}8b<4[8:1],{16}8/2,,,1,
{8}2>5[8:1],4,2/6<1[8:1],7,6/3,4<4[4:1],8,4,
,,5h[8:1],{16}4,6,3,5,7,2,4,5,3,6,
{8}4-8[8:1],3,4/5-1[8:1],6,5,4,3x/5x-7[8:1],2,
1/5,3,5x/7-3[8:1],8,{4}7/1>4[8:1],1/8,
3/5<8[8:1],5/1-5[8:1],1<6[8:1],1w5[8:1],
1,{8}5<8[8:1]/4>1[8:1],3/6,{4}5/4,{8}1/8-4[8:1],7/2,
8/1,{16}2,7,3,6,{8}4,5h[4:1]/3h[4:1],{16},,,,3,3,
4,4,5,5,{8}6/3,5x/4x,{4}3/7h[1:2],B5,
4,C,5,B4,
6,B2,4-2[8:1],4/B7/B8,
3/1-7[8:1],1/B3/B4,3/5-7[8:1],5/B1/B2,
1>5[4:1],{8}8/1,7,{4}6-8[8:1],6/5,
7/1>3[8:1],8/1,4/5<7[8:1],5/4,
8/2>4[8:1],2/1,{8}6h[8:3],5h[4:1],,,3,
4,{16}5,4,{8}5,{4}6/3h[4:1],C,
{8},B6,B3,C,{2}4h[8:27]/5h[8:27],
{1},,,{8}4/5,
6/3,6/3,5/4,{4}5/4-2[8:1],6,
8/7-5[8:1],3,1-5[8:1],1-7[8:1]*-3[8:1],
1,{8}5/4,7/5,4/2,{16}1x/8x,1x/8x,1x/8x,1x/8x,1x/8x,1x/8x,
{2}1h[4:1]/8h[4:1],{4}4/8b<4[8:1],{16}8/2,,,1,
{8}2>5[8:1],4,2/6<1[8:1],7,6/3,4<4[4:1],8,4,
,,5/4,{16}2,5,7,3,5,4,2,6,3,5,
{8}7-5[8:1],3-1[8:1],7-1[8:1],3-5[16:1],7<7[4:1],3,7,C,
,4/5,{16}6,3,{8}5,2/8<5[8:1],3,8/1,4,
6/4>1[8:1],3,4/5,6,6-1[8:1],7,{4}6/3-8[8:1],
{8}5/3,4,1>4[8:1]/8<5[8:1],2/7,{4}1/8,{8}5/4-1[8:1],6/3,
4/5,{16}7,5,3,8,2,6,{4}4h[4:1],{8}C,7,
4/5,{16}2,2,3,3,4,4,{4}5/1b>5[8:1],{16}1/7,,,8,
{8}7<4[8:1],5,7/3>8[8:1],2,3/6,5>5[4:1],1,5,
,,4h[8:1],{16}5,3,6,4,2,7,5,4,6,3,
{8}5-1[8:1],6,5/4-8[8:1],3,4/2,1,6x/5x-1[8:1],7,
8/5,6,4x/2-6[8:1],1,{4}2/8<5[8:1],8/1,
6/4>1[8:1],4/8-4[8:1],8-6[8:1]*-2[8:1],8w4[8:1],
8,{8}4-7[8:1]/3-8[8:1],5/2,{4}4/3,{8}2/1<6[8:1],3/8,
2/1,{16}3,5,4,6,{8}3,2h[4:1]/7h[4:1],{16},,,,3,6,
3,6,4,5,{8}4,5,{2}4/6h[8:7],
{8},,,C,8b,{16}5,4,6,3,7,2,
8,1,7,2,8,1,7,2,6,3,5,4,6,3,5,4,
6,5,4,3,6,5,4,3,7,6,5,4,1,2,3,4,
7,6,8,5h[16:1],2,3,1,4h[16:1],5,4,5,4,{8}7h[8:1],{16}1,5,
3,8,{8}6h[8:1],3h[8:1],5h[8:1],4,{16}4,5,3,6,2,7,
1,8,1,8,2,7,2,7,2,3,4,5,7,6,5,4,
3,6,2,7,1,2/8,,,3,5,{8}4,2/5,4,
{16}6,4,{8}5,7/4,5,{16}4/5,6/3,{8}7/2,2/7,{16}7,8/6,
,2,{8}1/3,{16}5x/4x,5x/4x,5x/4x,5x/4x,{4}4/5-7[8:1],4/5,
6/7-1[8:1],{8}7/6,{16}6,5,{4}4/3-1[8:1],{16}4/3,5,6,7,
{4}8-4[8:1]/1-3[8:1],8/1,{8}8/1-3[8:1],3,8/1,6,
2/3-5[8:1],5,3/2,1,8/7-5[8:1],5,{16}8/7,1,2,3,
{8}4-8[8:1]/5-7[8:1],5/4,{4}4/5,{16}1-5[8:1],2,3,4,{8}5,8,
{16}8-4[8:1],7,6,5,{8}4,1,{16}4,5,6,7,8/1,2,3,4,
5,6,4,7,3,8,2,1,{4}7>2[4:1],2>5[4:1],
5<8[4:1],8v3-1[4:1],{2}1<1[8:3],
{8},,4/5,6/3,{2}7h[4:5]/2h[4:5],
E
