&title=The Last Page
&artist=ARForest
&first=0
&des=Benren
&lv_5=14 | 14.0
&inote_5=(195){1},
,,,,,
{16}
1x/7x,,,,2h[4:1],,,,5,,5,,4,,,,
3h[4:1],,,,6,,6,,5,,,,7h[4:1],,,,
4,,4,,5,,,,6h[4:1],,,,3,,3,,
4,,,,1h[4:1],,,,4,,4,,3,,,,
2h[4:1],,,,6,,6,,5,,,,8h[4:1],,,,
5,,5,,6,,,,7h[4:1],,,,3,,3,,
2h[4:1]/4,,,,7h[8:1],,,,5,,5,,6,,,,
2h[8:1],,,,4,,4,,3,,,,6h[8:1],,,,
5,,5,,7,,,,3h[8:1],,,,4,,4,,
2,,,,5h[8:1],,,,2,,2,,4,,,,
4h[8:1],,,,7,,7,,5,,,,8h[8:1],,,,
1,,1,,6,,,,1h[8:1],,5,,6,,7,,
8xp5[2:1]/2xh[4:1],,,,,,,,3,,,,1xh[4:1],,,,
4,,,,3/5,,,,4xpp7[2:1]/2xh[4:1],,,,,,,,
1,,,,2,,,,4/7,,,,2/5,,,,
4xh[4:1]/6xq1[2:1],,,,,,,,2,,,,4xh[4:1],,,,
8,,,,4/7,,,,3xqq8[2:1]/5xh[4:1],,,,,,,,
6,,,,5h[4:1],,,,3,,3,,2/4,,,,
8bp6[2:1]/3xh[4:1],,,,,,,,2,,,,1xh[4:1],,,,
6,,6,,5/7,,,,4xq6[2:1]/2xh[4:1],,,,,,,,
3,,,,1xh[4:1],,,,7,,7,,2/6h[4:1],,,,
5x>2[4:1],,,,7,,,,6,,,,5x<8[4:1],,,,
2,,,,3,,,,4x>1[4:1]*<7[4:1],,,,,,,,
,,,,1xh[4:2]/7xh[4:2],,,,,,,,,,,,
C,,,,,,,,,,,,E1,,,,
,,,,,,,,E3,,,,,,,,
,,,,E5,,,,,,,,,,,,
E8,,,,,,,,,,,,E6,,,,
,,,,,,,,E4,,,,,,,,
,,,,E2,,,,,,,,C,,,,
3,,4,,2,,4,,3h[1:0],,,,1,,,,
3,,,,7h[1:0],,,,6,,5,,7,,5,,
6h[1:0],,,,8,,,,6,,,,2h[1:0],,,,
3,,4,,2,,5,,1h[1:0],,,,7,,7,,
3h[1:0],,,,5h[1:0],,,,6,,5,,7,,4,,
8h[1:0]/4p1[2:1]*q7[2:1],,,,,,,,,,,,,,,,
8x/2xh[4:1],,,,6,,6,,4h[4:1],,,,7,,,,
2,,2,,3/1<5[8:3],,,,4h[4:1],,,,,,,,
3,,,,2h[4:1]/5,,,,6,,6,,4h[4:1],,,,
8x<4[8:3],,,,3,,,,2,,,,1x>5[8:3],,,,
5,,,,6,,,,8xp4[4:1],,,,3,,2,,
1xq7[2:1]*p3[2:1],,,,,,,,,,,,,,,,
2x/8x,,7,,3,,5h[4:1],,,,3,,4,,2,,
8,,4,,6,,5,,7,,7,,4,,6,,
3,,5,,2,,2,,4,,3,,6,,5,,
8xh[4:6],,,,,,,,,,,,,,,,
,,,,,,,,1>4[4:1]*<6[4:1],,,,,,,,
,,,,C,,,,3,5,3,5,2,4,2,4,
1xh[4:1],,,,8x,7,6,5,3x,,4,,4xh[4:1]/3x,,,,
1x,2,3,4,6x,,5,,5xh[4:1]/6x,,,,8x,7,6,5,
3x,,4,,4xh[4:1]/3x,,,,1x,2,3,4,6x,,5,,
5xh[4:1]/7x,,,,1x,8,7,6,3x,,5,,2x/5xh[4:1],,,,
8x,1,2,3,6x,,4,,4xh[4:1]/7x,,,,1x,8,7,6,
3x,,5,,5xh[4:1]/2x,,,,8x,1,2,3,6x,,4,,
4xh[4:1]/6x,,,,7x,6,5,4,2x,,4,,4xh[4:1]/1,,,,
8x,1,2,3,5x,,4,,4xh[4:1]/7,,,,8x,7,6,5,
3x,,4,,4xh[4:1]/3,,,,2x,3,4,5,7x,,5,,
5xh[4:1]/8,,,,1x,8,7,6,4x,,5,,5xh[4:1]/3,,,,
1x,2,3,4,6x,,5,,5xh[4:1]/7,,,,1x,8,7,6,
3x,,5,,4xh[4:1]/2,,,,8x,1,2,3,4x/5x,,,,
C,,,,,,,,,,,,E2,,,,
E3,,,,E4,,,,E5,,,,,,,,
,,,,D7,,,,,,D2,,,,,,
E8,,,,,,E4,,,,,,B3,,,,
B2,,,,B1,,,,B8,,,,B7,,,,
B6,,,,C,,,,E5,,,,,,,,
2xh[4:1]/8x,,,,7,,7h[4:1]/1,,,,3,,3/8xh[4:1],,,,
7h[4:1],,,,6h[4:1],,,,1x>4[4:1],,,,4<7[4:1],,,,
7,,,,8x<5[4:1],,,,5p1[4:1],,,,1,,,,
3x,,3,,7,,7,,2,,2,,5,,5,,
4,,4,,6,,6,,2x/7x,,3,,4,,5,,
6,,7,,1x,8,1,8,1,8,1,8,1,8,1,8,
2h[1:0],,,,,,,,,,,,4h[1:0],,,,
,,,,,,,,6h[1:0],,,,,,,,
,,,,4x/8x,,,,3/5,,,,2/6,,,,
1x/7b,2,3,4,1,8,7,6,4/5,3,2,1,7x/8x-3[8:1],,,,
8x/5x-8[8:1],,,,5x/4x>1[8:1],,,,4x/8x,7,6,5,8,1,2,3,
4/5,6,7,8,2x/1x-6[8:1],,,,1x/4x-1[8:1],,,,4x/7xh[4:1],,,,
8x,1,2,3,4/5,6,7,8,1x/5x,4,3,2,1x-5[8:1]/8x,,,,
6x-1[8:1]/1x,,,,6x/2x-6[8:1],,,,2x/6x,7,8,1,5x,4,3,2,
1/8,7,6,5,4xv7[8:1]/3x,,,,4x/8x,,1,,2>5[8:1],,,,
2xb/6x,7,8,1,2,3,4,5,6x/1x,2,3,4,5x-2[8:1]/7x,,,,
5x/8x-5[8:1],,,,3xh[4:1]/8x,,,,4x,5,6,7,8/1,2,3,4,
1,8,7,6,5x-8[8:1]/4x,,,,2x-5[8:1]/5x,,,,2x/1xv6b[8:1],,,,
1b/4x-1b[8:1],,,,4/8,,7bv4b[8:1],,,,1/7,,2b-7b[8:1],,,,
2/6x-1[8:1],,,,4x-1b[8:1]/6,,,,7xv4[8:1]/4b,,,,7/2x,,1,,
8-3b[8:1],,,,8b/6x-1[8:1],,,,6/2x-5[8:1],,,,2/7x,,,,
1x/4xb,8,7,6,5/3,2,1,8,4,5,6,7,8xv5[8:1]/2x,,,,
8/3x-8[8:1],,,,3/6xh[4:1],,,,7x,8,1,2,3/4,5,6,7,
8/1,2,3,4,5x-2[8:1]/6x,,,,5/7x-4[8:1],,,,7/1x>4[8:1],,,,
5x/1x,6,7,8,1,2,3,4,8x,1,2,3,4x-8[8:1]/6x,,,,
4/7x-4[8:1],,,,1xh[4:1]/7,,,,5x,6,7,8,5x,4,3,2,
1/8,7,6,5,4xV68[16:3]/8x,,,,1,,2,,3h[4:1],,,,
1x,8,7,6,5/3,2,1,8,5x,6,7,8,1x-6[8:1]/2x,,,,
1/3x-8[8:1],,,,3/5xh[4:1],,,,7x,8,1,2,3/5,6,7,8,
4x,3,2,1,8xv3[8:1]/7x,,,,8/6xv1[8:1],,,,6/4xh[4:1],,,,
8x,7,6,5,1,2,3,4,5/6,7,8,1,2x-7[8:1]*<7[8:1]/4x,,,,
2x>5[8:1]*-5[8:1],,,,2x,,,,8b,7,6,5,8x/4x,1,2,3,
{32}
4x/1x,,8,,7,,6,,5x/2b,3,4,5,6,7,8,1,2x,3,4,5,6,7,8,1,2x,3,4,5,6,7,8,1,
{16}
2xbh[4:6]/Cf,,,,,,,,,,,,,,,,
,,,,,,,,,,,,,,,,
,,,,,,,,,,,,,,,,
8h[4:1],,,,2h[16:1],,2h[16:1],,5,,6,,4h[4:1],,,,
7h[16:1],,7h[16:1],,4,,3,,6h[4:1],,,,3h[16:1],,3h[16:1],,
4,,5,,2h[4:1],,,,6h[16:1],,6h[16:1],,E2,,E8,,
,,,,,,,,,,,,,,,,
,,,,,,,,,,,,,,,,
,,,,,,,,,,,,,,,,
