&title=スコーピオンガールの貴重な捕食シーン
&artist=STEAKA/初音未来
&first=-0.009
&des_1=ボーカロイド最高!
&des_2=ボーカロイド最高!
&des_3=ボーカロイド最高!
&des_4=ボーカロイド最高!
&des_5=ボーカロイド最高!
&lv_5=14
&des_6=ボーカロイド最高!
&des_7=ボーカロイド最高!
&des=ボーカロイド最高!
&inote_5=(152){4},,,,,
{16}B3/B6,,,,,,
{16}E4,B4,B5,E6,,,
{8},,,,,
{16}A3,A6,,,,,,,,,D4,,,D5,,,D6,,,,,,,,,,,,,,,,Ch[16:1],,,,,,,,,,2>5[8:1],,,4,2,,6,,5,7,5,,4-2[8:1],,4,,A5h[16:1],,A6h[16:1],,A7h[16:1],,3,,7h[16:3],,,5,6,,47,,2>5[8:1],,,4,2,,6,,6-1[8:1],,,4,6,,3h[8:1],,A8h[16:1],,A7h[16:1],,A6h[16:1],,E4,E6h[16:5],,,,,Ch[16:4],,,,5x-8[8:1],,,,35,,,4,7<4[8:1],,3,,2,,,,34,,5,,34,,2,,1v4[8:1]/7v4[8:1],,,,,,,,35,,2,,35,,6,5,7,5,6,,4-2[8:1],,4,,5h[8:1],,,,3h[8:1],,4,,2-4[8:1],5-2[8:1],2,,,,,,1x<6[8:1]/5x>2[8:1],,,,15,,,,2>5[8:1]
,,6,,7,,,,56,,4,,56,,7,,8v5[8:1]/2v5[8:1],,,,,,,,46,,3,,46,,3,4,2,4,3,,5,,6,,B3,B5,B1,B7,B4,B6,B2,B8,Chf[4:1],,,,,,,,7x-5[8:1]/3x,,,,2h[16:3],,,,4-7[8:1],,3,,2,,,,46,,3,,28,,7,,6v1[8:1]/4v1[8:1],,46,,,,,,28,,7,,46,,3,4,2,5,3,,46,,7,,2h[8:1],,4,3,5,4,6,5,7-5[8:1],4-7[8:1],7,,,,,,8x-2[8:1]/6x,,,,5h[16:3],,,,3-8[8:1],,4,,5,,,,17,,2,,35,,6,,7v4[8:1]/1v4[8:1],,17,,,,,,53,,2,,17,,6,5,7,5,6,,5,,4,,B6,B4,B8,B2,B5,B3,B7,B1,E7h[16:1],,E3h[16:1],,Cf,,,,3h[8:1],,4,3,,25,,3h[16:3]/4,,,5,4,6,4,7h[8:1],,5h[8:1],,6,5,,47,,6h[16:3]/5,,,4,5,3,5,2,5,3h[8:1],,4,3,,25,,3h[16:3]/4,,,5,4,6,4,,7,5h[16:1],,5h[16:1],,6h[16:1]/4h[16:1],,6h[16:1]/4h[16:1],,3-5[8:1],4,3,,6bh[8:1],,,,7V13-5[2:1],,,,2,,,,4h[4:1],,,,,,,,3V17-5[2:1],,,,8,,,,6h[4:1],,,,,,,,47,,47,,36,,36,,2,2,5,5,3h[8:1],,4,3,,,25,,47,,6,5,,8,3,,Cf,,,,47,,6,5,,47,,5h[16:3]/6,,,8,6,4,,3,,25,,3,4,,25,,3/4h[16:3],,,1,3,5,,6,,47,,6,5,,28,,6/5h[16:3],,,8,6,4h[16:1],,,7,5h[16:1],,5h[16:1],,4h[16:1]/6h[16:1],,4h[16:1]/6h[16:1],,7<4[8:1],3,7,,
{24}4x,3,2,1,,,
{16}25,,3,4,,17,,3/4h[16:3],,,1,3,5,,62,,74,,6,5,,82,,6/5h[16:3],,,8,6,4,,37,,25,,3,4,,17,,3/4h[16:3],,,1,3,5h[16:1],,,6,5h[16:1],,5h[16:1],,4h[16:1]/6h[16:1],,4h[16:1]/6h[16:1],,7V53[8:1],3,7,,1b,,,,2h[16:1],,2h[16:1],,4h[16:1],,4h[16:1],,3,,25,,3,,16,,7h[16:1],,7h[16:1],,5h[16:1],,5h[16:1],,6,,47,,6h[8:1],,5,,3h[8:1],,5,4,6h[8:1],,3,4,2,,13,,2,,48,,7h[8:1],,5,6,4h[8:1],,6,5,7h[8:1],,8,,1b/6b,,,,2h[8:1],,4,3,5h[8:1],,4,,6,,5,,4h[8:1]/7h[8:1],,,,7h[8:1],,5,6,4h[8:1],,5,,3,,4,,2h[8:1]/5h[8:1],,,,3h[8:1],,4,2,5h[8:1],,4,,6h[8:1],,5,7h[8:1],,4h[8:1],,6,5,,47,,5,,37,,5-8[8:1],,4xh[16:1],,,,,,A2/A3/E3,,,,A7/A6/E7,,,,A4h[16:6],,,A5h[16:3],,,,,3h[16:1],,3h[16:1],,4h[16:1],,4h[16:1],,5h[16:1],,5h[16:1],,6h[16:1],,6h[16:1],,2h[16:1],,2h[16:1],,4h[16:1],,4h[16:1],,5h[16:1],,5h[16:1],,7h[16:1],,7h[16:1],,2h[16:1],,4h[16:1],,5h[16:1],,7h[16:1],,1h[16:1],,8h[16:1],,27,,,,3h[16:1],,3h[16:1],,3h[16:1],,3h[16:1],,3xh[16:1]/4xq8[4:1],,3h[16:1],,3h[16:1],,3h[16:1],,2h[16:1],,2h[16:1],,2h[16:1],,2h[16:1],,2xh[16:1]/7x<4[4:1],,2h[16:1],,2h[16:1],,2h[16:1],,1s5[2:1],,,,
{8},,,,,,A7h[16:7],,A2h[16:3],,
{16}8x<5[8:1]/1x>4[8:1],,18,,,,,,A5/A4/E5f,,,,26,,,3,4-1[8:1]*-7[8:1],,17,,4,,,,2-4[8:1],,3,,5-2[8:1],,6-1[8:1],,5,,6,,,,3,4,2v5[6:1],,1,,7h[8:1],,,,6>2[4:1],,7,,8h[8:1],,,,7h[8:1],,3,3,6,6,4,4,5-1[8:1],,28,,5w1[8:1],,,,B5f/E6/E5,,,,73,,,6,5v8[8:1]*v2[8:1],,82,,5,,,,7-5[8:1],,6,,4-7[8:1],,3-8[8:1],,4,,3,,,,6,5,7h[8:1],,6,,4h[8:1],,5,5,3,4,2,,6,,57,,A1,A2,A3,A4,A8,A7,A6,A5,Ch[8:1],,,,E7/E3,,,,2x-4[8:1],,,4,2,,5-1[8:1],,,6-8[8:1],,,6,,,,3-1[8:1],,,1,3,,8-4[8:1],,7-5[8:1],,8,,7,,,,3h[8:1],,4,,2h[8:1],,1,3,8,4,7,,6h[8:1],,5,,7h[8:1],,8,6,1,5,2,4,3-8[8:1],5-3[8:1],3,,,,,,1x-3[8:1],,,3,1,,4-8[8:1],,,5-7[8:1],,,5,,,,2-5[8:1],,5-2[8:1],,2-7[8:1],,7-2[8:1],,6-2[8:1],,6,,,,,,3h[8:1],,4,,2h[8:1],,1,3,8,4,7,,6h[8:1],,5,,B4h[16:1],,B5h[16:1],,B3h[16:1],,B6h[16:1],,Ch[8:1],,E5,,E1f,,,,1x/E7/B6,,,,2x/E8/B7,,,,3x/E1/B8,,,,4x/E2/B1,,,,5x/E3/B2,,,,6x/E4/B3,,,,7x/E5/B4,,,,8x/E6h[8:1]/B5,,,,A8h[16:1],,A7h[16:1],,A6h[16:1],,A5h[16:1],,A4h[16:1],,A3h[16:1],,A2h[16:1],,A1h[16:1],,7,7,5,5,3,3,1,1,4xw8[8:1],,17,,B4f/E5/E4,,,,
{32}2xb-5[8:1]/6xb-1[8:1],3x/5x,4x,,,,,,
{16}2b/6b,,,,7-5[8:1],4,4,,7/2h[8:1],,,,3-1[8:1],,8,,7-5[8:1],,6,,1-3[8:1],,2,,4,5,6,7,8-4[8:1]/3-1[8:1],,14,,38,,,,2-4[8:1],5,5,,2/7h[8:1],,,,6-8[8:1],,1,,2-4[8:1],,3,,1-5[8:1],,8-6[8:1],,7b,,,,4<6[8:1],3,2,,1h[8:1]/4,,,,2-4[8:1],8,8,,2/7h[16:1],,7h[16:1],,6-8[8:1],5,6,,3h[8:1],,,,2-4[8:1],,1,,1,8,7,6,5-1[8:1]/4,,,,2h[8:1],,,,3-5[8:1],8,8,,7h[8:1]/3,,,,6-4[8:1],,5,,6-2[8:1],,3,,6-8[8:1],,4-2[8:1],,6,,,,
{24}8xb>3[8:1],7,6,5,,,48,5,6,7,,,
{16}2-5[8:1],8,8,,6h[8:1],,,,7-5[8:1],5,5,,3-1[8:1],,2,,4-8[8:1],4,4,,1,2,3,4,8x-6[8:1]/5x-1[8:1],,,,58,,,,2-4[8:1],5,5,,2/6h[8:1],,,,7-5[8:1],5,5-1[8:1],,7/4-2[8:1],,3,,4-8[8:1],,7-4[8:1],,4,,,,
{24}1xb<6[8:1],2,3,4,,,51,4,3,2,,,
{16}7-4[8:1],1,1,,3h[8:1],,,,2-4[8:1],4,4,,6-8[8:1],,7,,5-1[8:1],5,5,,8x,7,6,5,3xb,2,1,8,6xb,5,4,3,8xb,7,6,5,2xb,1,8,7,3xb,4,3,5,3xb,6,3,7,2xb,8,1w5[8:1],,5xw1[8:1],,,,
E
