&title=我为厨艺狂
&artist=苏婕/赵羽
&first=0.03
&des=obs
&clock_count=4
&lv_5=12+
&inote_5=(143){1},,
{8}1/8,,,2,,2,2h[4:1],,
{8}7<5[6:1],,,2h[4:1],,6,1-5[6:1],,
{8}8h[4:1],,,,3h[4:1],5,5,,
{16}3,,,5,4,,6<1[5:1]*>3[5:1],,,,,,,,,,
{8}2/8,,7,{16}4,6,{8}4h[8:1],7,8h[8:1],2,
{8}7<3[3:1],,,2h[4:1],,,1pp5[2:1],,
{8}8h[4:1],,,,7,6,6h[4:1],,
{16}3,,,5,4,,6h[8:3],,2,,,,4>2[6:1],,,,
{8}4<7[5:1],,4>8[4:1],,4<1[3:1],,,,
{8}3h[2:1],,,,4pp7[4:3],,,,
{32}4h[4:3],,,,,,,,{8},,,,6,,
{8}7h[2:1],,,,8h[2:1],,,,
{8}7V52[2:1]*V14[2:1],,,,,,,,
{8}1q3[8:5]/5h[2:1],,,,,,,,
{8}7q1[8:5]/2h[2:1],,,,,,,,
{8}3h[4:1],,4h[4:1],,5h[4:1],,6h[4:1],,
{8}4b,,3/5,3/5,,4/6,4/6V85[3:1],,
{8}2,,2h[8:3],,5,6<2[8:3],,,
{8}2V86[4:1],,6>1[3:1],,4h[4:1],,,,
{16}3/7,,4,5,4,,4V25[8:3],,{8}6,,7,,
{16}7h[16:3],,,6,{8}8,4,4,3/8,2pp5[4:3]/1,2/1,
{8}8h[4:1],,,7,7,,6h[4:1],,
{16}3,,,4,5q8[2:1],,3,,{8}5/3h[4:1],,,,
{8}2,3,4qq2[24:5]/7,6,5pp7[24:5],,,,
{16}3,6,2,7,1>1[2:1],8,1,8,1,,,,,,,,
{8}6,,5h[8:3],,4,2V48[8:3],,,
{8}8V62[8:3],,5h[4:1],,,,6b,,
{16}3/7,,5,4,5,,5V74[8:3],,{8}3,,4-8[4:1],,
{16}2h[16:3],,,,{8}2,3,7,3/8,2>5[4:1]/1,/8,
{8}7>2[4:1],,,4,3h[4:1],,8qq8[4:1],,
{8}8pp8[4:1],,3,,3h[4:1],,,,
{8}2h[4:1],,4-1[8:1],3,5-8[8:1],,,,
{32}2,3,4qq8[16:5]*pp8[16:5],,{8},,,,,1b,,
{16}1,8,2,7,3qq8[3:1],6,3,6qq3[3:1],,,,,,,,,
{16}2bV83[3:1],,2,4,2,,4,,5,,,,6-8[6:1],,,,
{16}1-4[6:1]*v6[6:1],,2,,1>7[3:1],,,,,,,,1b,,,,
{16}3/7,,4,5,4,,4qq1[8:3],,{8}6,,7,,
{16}8qq6[6:1],,8,2,8q4[8:1],,1,,,,7,,6/5,,6/5,,
{16}4p8[6:1],,3,7,4,,6,,6h[4:1],,,,2,,,,
{16}2/7,,6,3,8p5[3:1],,4,,{8}8/4h[4:1],,,,
{16}3,,2,6,1pp3[6:1],,7,,8qq6[6:1],,,,,,,,
{16}3,6,2,7,1,8,1,8,{24}1b,2,3,4,5,6,7b,8,1,2,3,4,
{16}5/6,,4p8[6:1],7,5,,4,,6h[8:1],,,,2q6[4:1]/7,,,,
{8}6p8[4:1],7,8q6[4:1],7,7h[4:1],,,,
{16}3/7,,5,4,6,,5q1[4:1],,{8}3,,2h[4:1],,
{16}3,,,4,{8}3-8[8:1],6,3,,7/1,6/2,
{16}5/3,,4,5,3,,6,,3h[4:1],,,,6>3[6:1],,,,
{16}3-6[6:1],,2,,1q8[4:1],,,,1,,,,,,,,
{16}7/2,,6,3,5-8[6:1],,3,,4-1[6:1],,,,,,,,
{32}2/7,3/6,4/5,,{16},,,,4,7,1b,
E
