&title=M@STERPIECE
&artist=765PRO ALLSTARS
&first=0.111
&des=Ayuri
&lv_5=13
&des_5=Ayuri
&inote_5=
(128){4},3V52[4:1]/6V47[4:1],{8}3/6,,,8,
1,8,{4}2h[4:1]/3<8[8:1],,7h[4:1]/6>1[8:1],
,8>7[4:1],,D8h[4:3]/E8h[4:3]/A7h[4:3]/1<2[4:1],
,A2h[4:1]/D2h[4:1]/E2h[4:1],{16},,7x,6x,{8}5x-8[8:1],{16}1,2,
{4}3,E4h[4:3]/A4h[4:3]/D4h[4:3],{32}B1,B8,B7,B6,,,,,E1,E8,E7,E6,,,,,A8,
A7,A6,A5,,,,,{4}E6h[4:3]/A5h[4:3]/D6h[4:3],{32}B8,B1,B2,B3,,,,,E1,E2,E3,E4,,,,,A1,
A2,A3,A4,,,,,{4}4x>5[16:7],,,7x-2[8:1]/6x-3[8:1],
7/6,2x-7[8:1]/3x-6[8:1],3/2,
8xqq4b[8:3]*q3[8:3],8,,1h[8:3]/8h[8:3],
,7<5-1b[4:1]/2>4-8b[4:1],,,B7/E7/B2/E3/E1f/B8/B1,
5<7[8:1]/2>4[8:1],,B3h[1:1]/B4h[1:1]/E4h[1:1]/6<1[8:1],
6,2<5[4:1],{2}2,
{8}7/2,3/6,{4}4-1b[8:1],{8},,1/7V16[4:1],2,
3,4,{4}B6h[4:3]/E6h[4:3]/E7h[4:3],{32}A8,A1,{16}A2,{32},,,,E3,E2,{16}E1,{32},,,,B8,
B1,{16}B2,,,{4}1>4[8:1],{8}1,{16}6,5,{8}7-1[8:1],7,
2-6[8:1],2,{4}5<8[8:1]*>2[8:1],5,2-8[8:1],
7-3[8:1],4h[4:1],{8}5,{16}3,6,{8}2V83[4:1],8,
{4}2,5<8[8:1],5>2[8:1],5/1w5[8:1],
1,A3h[1:1]/E4h[1:1]/E3h[1:1]/E8h[4:1]/A7h[4:1]/E7h[4:1],{8},,1<6V47[8:3],1,
{32},,,,,,,,,,,,,,,,1xh[4:1]/D7,B7,B1,D2,,,,,{4}8xh[4:1],
{32}D3,B2,B8,D8,,,,,{4}5<8b[8:1],{2}2-4-1-5-8-6[2:1],
{4},,6-8[8:1]/5q1[8:1],5/6,
3-1[8:1]/4p8[8:1],4/3,B7/E7/B6/C,D1h[4:1]/A1h[4:1]/E1h[4:1]/D6h[2:1]/A6h[2:1]/E6h[2:1],
{32}D2,A2,D3,A3,{8}4xh[2:1],{32}D7,A7,D8,A8,{8}8xh[4:1],,,3/7,5/1,
{4}2-5[8:1]*<6[8:1],2,7-4[8:1]*>3[8:1],7,
{8}2/5,{16}4,6,{8}3-7[8:1],2,8<5[8:1],1,4>1[8:1],3,
{2}4V27b[8:1]/8V63b[8:1],{4}5pp6[4:1],{8}4,3,
3,2,{4}2V84-1[8:3],{8}2/5,6,{4}7-2[8:1],
,8V63b[8:1]/4V27b[8:1],{8},,5,4,
6,3,{4}7V15-8[8:3],{8}7/4,3,{4}2-7[8:1],
{8},,6,5,4/3,{16}3,4,{8}2v8[8:1],5,
{2}7qq6<1[4:1],2pp3>8[4:1],
{8}7<3[4:1],{16},,,,,,,,2,1,{4}8h[4:1],
{8}7>3[4:1],,,,,5,{4}4w8[8:1],
{16},,,,6,5,7,4,8,3,1,2,{8}Cf,2xpp3[8:1],
1,7xqq6[8:1],{4}8,{8},2,3,7,
6x>8b[4:1],5x/4x,{4}3x<1[4:1],A8h[2:1],A1h[4:1],
{8}D1f,7xqq6[8:1],8,2xpp3[8:1],{4}1,{8}7-4[8:1],1-6[8:1],
7>5[4:1],1,{4}A7f,{8}7,4,6-1[8:1]*-2[8:1],5,
,,{4}B4fh[4:3]/8>2[8:1],B3f/8<5[8:1],8/B5f,
C,B5fh[4:3]/1<7[8:1],B6f/1>4[8:1],1/B4f,
C,2V48[4:1],8V26[4:1],6V84[4:1],
{16},,,,5,6,7,8,4,3,2,1,{4}8-4[8:1],
{8}8,7>5b[4:1]*q5[4:1],,7,,,8V61[4:1],4V25[4:1],
8,4,{4}A8fh[8:3]/D8h[8:3]/D1h[8:3],{48}A4,D4,A3,D3,A2,D2,{8}A1,{16},,3,5,
{8}3,{16}6,4,{8}6,{16}3,5,{8}3,8/1,7/2,6/3,
4>6[4:1]/5<3[4:1],,,,,Cf/B5/B4/B3,,B6/B5,
{4}B2/B3,D4h[4:1]/6>4-8[4:1],6,D8h[4:1]/3<5-1[4:1],
3,{8}7-4[8:1],4-8[8:1],7,2<5[4:1],,B7/E7,
{4}A7/E8,7/2V48[4:1],8V26[4:1],6V84[4:1],
,6-8v1-3[4:1],,4w8b[8:1],
,3pp4-1-3[2:1]/5<8b[8:1],,,,5pp6[8:1]/4qq3[8:1],
{32},,,,,,,,8x,7,6,5,4,3,2,1,
8,7,6,5,4,3,2,1,{4}8b<5[8:1]/4b-8[8:1],4/8>4[8:1],E7h[4:1]/B6h[4:1]/B7h[4:1],
{8}2,3,{4}4>1[8:1]/8-4[8:1],8/4<8[8:1],E3h[4:1]/B3h[4:1]/B2h[4:1],
{8}1-5[8:1],7,{4}5/1,8-4[8:1],{8}8/3,2w6[8:1],
,2,{16}D5,D4,D3,D2,D6,D7,D8,D1,4,3,2,1,
5,6,7,8,{8}2>5[8:1],1,{4}2,{8}1>5[8:1],8,
{4}1,{8}7<4[8:1],8,{4}7,{8}8<4[8:1],1,
{4}8,{8}3-7[8:1],5,{4}6h[4:1],{8}7-3[8:1],5,
{4}4h[4:1],1<2[4:1],,A2h[4:9]/E2h[4:9]/D2h[4:9]/8>7[4:1],
,A7h[4:7]/D8h[4:7]/E8h[4:7],{1},{4},,,{32}A8,
A7,A6,A5,,,,,{2}5x<4b[8:13],
{32},,,,,,,,A1,A2,A3,A4,,,,,{2}4x>5[8:5],
E
