&title=Ops:Limone
&artist=Reku Mochizuki
&first=0.8
&des=Nanashi
&lv_5=14
&inote_5=(210)
{4}3>5[1:1],5bxh[4:1],{8},5h[12:3],,,4xh[4:1],,,,4,,3q5[2:1],,,8,,,,,,,
{4}3/5,5x<4[1:1],{8}4,4h[12:3],,{8},5xh[4:1],,,,6,,4xq1[4:1],,,3,,,5-2[4:1],,7h[4:1],,,,
{8}1xh[4:1],,,2h[4:1]/8h[4:1],,,3xh[4:1]/6xqq1[2:1],,,,3h[4:1],,,,,5qq1[2:1]/1h[8:3],,,,,,,
{8}6x,5x,6xh[2:1],,5,5,3xh[2:1],,4x,,4,5,6,,7bxqq5p1[2:1]/2bxpp4q8[2:1],,,,,,,,,,
3/6,,2b/5b,,6,2,8,2-5[4:1],7,,3x,,8,,7b/4b,,6,5,6-1[6:1],,7,,4x,,3/8,,1b,,
{16}2,3,
{8}4V62[8:3],,8,8h[4:1],,,,7,,{8}6h[4:1],,5,5,4,,4qq5[2:1],,1h[4:1],,,,1b<4[2:1],,{4}2,2,3,3<8[2:1],2,2,1V35qq6[1:1],6,6,7,7,
{8}8-4[6:1],,4,2-5[6:1],,1,7V51[4:1],,8,,3,,
{12}7x,5x,6,2x,4x,3,5x,4x,5,3h[4:3]/6h[2:1],,,,,,,,,
{8}5xv8<6[2:1],,,2h[12:3],,,2x,,3-7>2[2:1],,5h[4:1],,,5h[4:1],,B1/A1/E2/B2,,,6,,5/3,,4,,4x-8[4:1],,,5,,{24},,,
{16}5x,6x,
{8}7-4[6:1],4-1[4:1],,1-6[4:1],,6x>3[4:1],,,2,,,8bx/B6f/E7/A6/D6,,4bx/B1/E2/B2/D2,,8bx/B4/E4f/A3/D4,,
{4}5bqq8[2:1]/2b,{8},2,,,{16}2x,3x,4x<6[6:1],,6<8[4:1],,,,8>4[4:1],,,,4xV62[4:1],,,,,,
{8}8h[8:7],,,3x-5[6:1],,3-1[6:1],,3,,7x,,6,6h[4:1],,5,{16}5x,4x,3,,{8}2,,6,6/5,2hb[4:1],,4,4bx,3h[4:1],,5,,5b/3b,,1>4[6:1],7,1x<6[6:1],,1-5[6:1],,1,{16}6x,7x,
{8}8-4[8:1],,8-6[8:1],2,2x/8x-4[6:1],,8/3-8[6:1],,3/7qq6[4:1],,7x/1x-4[6:1],,1-6[6:1],,5>2[6:1],,5x<8[6:1],,5-1[6:1],,7-4[6:1]/5,7,,{16}1x,2x,
{8}3V51[4:1],,3/7-4[6:1],,7,,8x-3[6:1],,6x,6-1[6:1],,2,2x-5[6:1],,7,,7x/3x,,3-7[6:1],,3/1,1>4[6:1],,{16}5x,6x,7-4-8[12:3],,,,
{8}7/1V35[4:1],,1<6[6:1],,1,,5x,5,6x,6,7-1[6:1]/3x,,3-5[6:1]/7x,,3/7x-3[6:1],,7,,{16}2-5[6:1],,,,12,,,,
{8}8x-4[6:1],,7-3[6:1],,6x-2[6:1],,5-1[6:1],,5,6x,7,7x,8-6[6:1]/1-6[6:1],,8-3[6:1]/1-3[6:1],,1w5[6:1]*-5[6:1]b,,1b`Cf,,,
3xh[8:3]/7,,,6-1-5[8:3],,3h[4:1],,,,4xV62[8:3]/7xh[12:3],,,7xh[4:1],,,
8x-5[6:1],,8-3[6:1],,8-4[6:1],,8x,,2>5[4:1]/5,,5<8[4:1],,8V64[4:1],,4V28[4:1]b,,8,,
6bh[8:1],,5h[8:1]/3h[8:1],,4h[8:1]/2h[8:1],,3h[8:1]/1h[8:1],,3h[8:1]/5h[8:1],,
4x-1[6:1]/6xv1[6:1],,4x/6x,,,3/7,,,4xh[4:1]/6xh[4:1],,,,2-6<1[2:1]/4xh[8:1],,4x,,,4,4h[4:1],,6xpp2[2:1],,4,,4,,4,,3,3/4,,6,5/7,,8,,1,,
{12}2x,4,3,7x,5,6,4x,5,4,3x-7[6:1]/6,,,6x-2[6:1]/3x,,,6x/1xw5[6:1],,,
{1}1`Cf,{8},,E2,E3,E4,,,,,,D6/D5,,,,B8,,Ch[4:3],,,,,,B3/B2/E3/E7/B7/B6,,,,,,E2/D2/E6/D6,,,C/B2/B6,,,E6/D4/E7,,,E4/E3/D8,,,
4x,4,5,6,7h[4:1],,4x,4,5,6,7h[4:1],,3x,3,4,5,6h[4:1],,3x,3,4,5,6h[4:1],,2x,2,3,4,5h[4:1],,2x,2,3,4,5h[4:1],,3x,3,4,5,6/4,,5/3,,6/4,,3b/5b,,
{16}2x/6x,3/7,4h[8:1]/8,,,,7x/3x,6/2,5/1h[8:1],,,,
{4}6-1[6:1],6x/2x-5[6:1],{16}7/2,,,,7x,6,5h[8:1],,,,6x/2x,7/3,8/4h[8:1],,,,
{8}7x-4[8:1],,3x-8[8:1]/7x,,3/6,5,
{16}5x,6,7h[8:1]/3,,,,4x/8x,7/3,
{8}6/2h[8:1],,5-1[6:1],
,5-8[6:1]/3,,5/3h[8:1],,3xV17[4:1],,7V53[4:1]b,5x,,8xh[8:1],,,2,,3,,
{16}7x,6,5,,2,,3,,3-1[6:1],,6x,7,3-5[6:1]/8,,,,3x,,,,8,,7,,6x-4[6:1]/1x,2,3,,6-8[6:1],,3,,6,,1,,2x,,,,
{8}3h[4:1]/4,,6,,
{16}4x/7x,,5x,6,5,,3,4x,3,,2/5,,3x/4x,,,,
{8}1/2,,7x/8x,,
{24}4,5,4,5,4,5,4,5,4,5,4,5,4-8[4:1],,,,,,6bh[2:1],,,,,,,,,,,,
{8}2,,3b>8[6:1]/7b<4[6:1],,3-7[6:1]/7,,1/3,,{16}1x-6[6:1],2x,3x,,1-4[6:1],,,,1,,,,
{8}8h[4:1],,3,6,,4,1,,2v5[6:1]/6,,6-1[6:1]/2,,6,,7/2pp2[4:1],7,,
{16}6x,7x,8<3[4:1],,,,8/2,,
{8}1-5[6:1],,6/1,8bh[2:1],,3,,3,,2b-8[8:1]b/6b-4[8:1]b,,2b-5[8:1]b/6b-1[8:1]b,,2b/6b,,3x/7x,
2-4[8:1],4-8[8:1],7,6-4[6:1],1,6x-8[6:1],3,6x,1-5[8:1],7x,1-3[8:1],4x,1/7-4[6:1]b,6x,7/2,3xV17[4:1],,3x/5xh[4:1],,,,
1x,5,6-1[6:1],,4,4-7[6:1],,1,1x-6[6:1],,3,3x-8[6:1],,3/5,5b,,
{16}5x,6,7h[4:1],,,,,,2x,3,4h[8:1],,1x,,,,2b/6b,,,,
{16}7,6,5h[8:1],,8,7,6h[8:1],,1bx,,,,3,4,5h[8:1],,2,3,4h[8:1],,1b,,,,
{12}2x,4,3,6x,4,5,3x,4,3,7x,5,6,3x,5,4,3xh[4:1]/6x,,,{16}8x,7,6,,5x/1x,62,7/3,,2b>5[8:1]b/6b,,,,2x/6x,7,8,,3x,,,,4b/7b,,,,
{12}2x,4,3,6x,4,5,3x,4,3,7x,5,6,3x,5,4,6,5,,
{16}6xh[4:1]/4x,,,,4,3,2h[8:1],,5b-1[6:1],,,,5x/1x,,,,2,3,4h[8:1],,1b,,,,{12}7x,6,5,4x/8,3,2,1,8x/4,7,6,5,4x,3h[2:1],,,1-5[6:1],,,1xw5[6:1],,,1x,,,3b/7b,,,
{8}46,,5,,3b/7b,,2-5[8:1],8-5[8:1],2,{20}8,7,6,1,2,{8}3,4b>1[6:1]/8b-5[6:1],,4b/8b-4[8:1]b,,6b-3[8:1]*-1[8:1],,6b,,8b/4b,,
{32}2x,3x,4x,5x,6x,7x,8x,1x,
{8}2bx-4[8:1]/6bx,6x,7-3[8:1]/2,6,7/2-8[8:1],1x,2/7,6,5-2[8:1]*-8[8:1],,5x,,1x,,3x/7x,,3x>7[6:1]/7x<3[6:1],,3bv1v7v1v8[2:5]b/7bv5v3v5v4[2:5]b,
E
